.
Авторизация | Регистрация
» » Заброшенные / The Confines / The Abandoned (2015) BDRemux 1080p от ExKinoRay | L2 скачать торрент бесплатно




    Заброшенные / The Confines / The Abandoned (2015) BDRemux 1080p от ExKinoRay | L2 скачать торрент бесплатно

    Опубликовал: Админ | Дата: 15-06-2016, 05:00 | Просмотров: 68



    Детально о кино
    Русское название: Заброшенные
    Русское название в мировом прокате: The Abandoned (The Confines)
    Создали в: 2015
    Категория жанра: Ужасы, триллер, детектив
    Главный режиссер: Итан Роквей

    Актеры
    Джейсон Патрик, Луиса Краузе, Марк Марголис, Лу Карбонно, Массиель Эрнандез, Генри Келемен, Брэндон Киффер, Джеймс Муртаг, Джон Сэмпсон, Карлос Веласкес

    Сюжет фильма

    Проблемная девушка Джулия Стрик устраивается на работу ночным охранником в заброшенном жилом комплексе. Но уже в первое свое дежурство сталкивается с чем-то неведомым, обитающим в недрах разрушающегося здания. Нервы ее на пределе, Стрик и ее напарник пытаются разобраться, где явь, а где лишь плод ее больного воображения.

    Снималось в: США
    Киностудия: C Plus Pictures
    Время просмотра: 01: 27: 08
    Перевод текста: Любительский двухголосый (закадровый) | DeadSnoDen904
    Файл
    Кодек для видео: MPEG-4
    Качество фильма: BDRemux 1080p
    Информация о видео: 1920x1080, 25.5 Mbit/s, 23.976 fps
    Информация о звуке:
    Информация о звуке #01: 48 kHz, AC3, 5.1, 384 Kbps | Любительский двухголосый (закадровый), DeadSnoDen904 | AC3
    Информация о звуке #02: 48 kHz, DTS-HD MA, 5.1, 2333 kbps | Оригинал | DTS-HD MA
    Субтитры: Русские, английские
    Релиз подготовил: Автор релиза:

    MI
    General
    Unique ID : 180508629244588136997176531248492998748 (0x87CCB28AA84DC7C6A1A100878FA2705C)
    Complete name : F: VideoThe.Abandoned.2015.BDREMUX.1080p.ExKinoRay.mkv
    Format : Matroska
    Format version : Version 4/Version 2
    File size : 17.2 GiB
    Duration : 1h 27mn
    Overall bit rate mode : Variable
    Overall bit rate : 28.3 Mbps
    Movie name : The.Abandoned.2015.BDREMUX.1080p.ExKinoRay
    Encoded date : UTC 2016-06-14 14: 36: 11
    Writing application : mkvmerge v8.3.0 (;Over the Horizon;) 64bit
    Writing library : libebml v1.3.1 + libmatroska v1.4.2
    Video
    ID : 1
    Format : AVC
    Format/Info : Advanced Video Codec
    Format profile : High@L4.1
    Format settings, CABAC : Yes
    Format settings, ReFrames : 4 frames
    Codec ID : V_MPEG4/ISO/AVC
    Duration : 1h 27mn
    Bit rate mode : Variable
    Bit rate : 25.5 Mbps
    Maximum bit rate : 32.0 Mbps
    Width : 1 920 pixels
    Height : 1 080 pixels
    Display aspect ratio : 16: 9
    Frame rate mode : Constant
    Frame rate : 23.976 (24000/1001) fps
    Color space : YUV
    Chroma subsampling : 4: 2: 0
    Bit depth : 8 bits
    Scan type : Progressive
    Bits/(Pixel*Frame) : 0.514
    Stream size : 15.6 GiB (90%)
    Title : The.Abandoned.2015.BDREMUX.1080p.ExKinoRay.***селезень***
    Language : English
    Default : No
    Forced : No
    Audio #1
    ID : 2
    Format : AC-3
    Format/Info : Audio Coding 3
    Mode extension : CM (complete main)
    Format settings, Endianness : Big
    Codec ID : A_AC3
    Duration : 1h 27mn
    Bit rate mode : Constant
    Bit rate : 384 Kbps
    Channel(s) : 6 channels
    Channel positions : Front: L C R, Side: L R, LFE
    Sampling rate : 48.0 KHz
    Frame rate : 31.250 fps (1536 spf)
    Compression mode : Lossy
    Delay relative to video : 1s 0ms
    Stream size : 239 MiB (1%)
    Title : DVO DeadSnoDen904
    Language : Russian
    Default : Yes
    Forced : No
    Audio #2
    ID : 3
    Format : DTS
    Format/Info : Digital Theater Systems
    Format profile : MA/Core
    Mode : 16
    Format settings, Endianness : Big
    Codec ID : A_DTS
    Duration : 1h 27mn
    Bit rate mode : Variable/Constant
    Bit rate : 2 333 Kbps/1 509 Kbps
    Channel(s) : 6 channels
    Channel positions : Front: L C R, Side: L R, LFE
    Sampling rate : 48.0 KHz
    Frame rate : 93.750 fps (512 spf)
    Bit depth : 24 bits
    Compression mode : Lossless/Lossy
    Stream size : 1.42 GiB (8%)
    Title : Original
    Language : English
    Default : No
    Forced : No
    Text #1
    ID : 4
    Format : UTF-8
    Codec ID : S_TEXT/UTF8
    Codec ID/Info : UTF-8 Plain Text
    Duration : 1h 21mn
    Bit rate : 55 bps
    Count of elements : 637
    Stream size : 32.8 KiB (0%)
    Title : Full
    Language : Russian
    Default : No
    Forced : No
    Text #2
    ID : 5
    Format : UTF-8
    Codec ID : S_TEXT/UTF8
    Codec ID/Info : UTF-8 Plain Text
    Duration : 1h 19mn
    Bit rate : 34 bps
    Count of elements : 722
    Stream size : 20.2 KiB (0%)
    Title : Full
    Language : English
    Default : No
    Forced : No
    Menu
    00: 00: 00.000 : en: Chapter 01
    00: 07: 22.942 : en: Chapter 02
    00: 13: 06.744 : en: Chapter 03
    00: 19: 33.714 : en: Chapter 04
    00: 28: 58.695 : en: Chapter 05
    00: 35: 07.688 : en: Chapter 06
    00: 43: 19.805 : en: Chapter 07
    00: 49: 24.127 : en: Chapter 08
    00: 56: 17.040 : en: Chapter 09
    01: 03: 52.537 : en: Chapter 10
    01: 12: 05.571 : en: Chapter 11
    01: 22: 03.335 : en: Chapter 12
    Скриншоты


    Онлайн видео Заброшенные


    Размер скачиваемого торрента: 17.22 GB (18488111675 Bytes)

    Заброшенные/The Confines/The Abandoned (2015) BDRemux 1080p от ExKinoRay | L2
    загрузка...
    Рейтинг →
     (голосов: 1, оценка 4/5, голосовать можно 1 раз )

    Другие торренты по теме:



      Комментарии (0):

      Информация

      Информация

        Посетители, находящиеся в группе Гости, не могут оставлять комментарии в данной новости.

        ↓ Меню



        ↓ Опрос

        А Вы добавили сайт в закладки?
        Да
        Не


        Top 10 за неделю (Фильмы)