.
Авторизация | Регистрация
Хочешь лучшие торренты? Добавь свой email!
Добавить
» » Крутые виражи / Cool Runnings (1993) WEB-DL 1080p | P2, А торрент скачать бесплатно




    Крутые виражи / Cool Runnings (1993) WEB-DL 1080p | P2, А торрент скачать бесплатно

    Опубликовал: Админ | Дата: 15-06-2016, 05:00 | Просмотров: 62



    Детально о кино
    Русское название: Крутые виражи
    Русское название в мировом прокате: Cool Runnings
    Создали в: 1993
    Снималось в: США
    Категория жанра: комедия, семейный, спорт
    Перевод текста: Профессиональный (двухголосый); Авторский (одноголосый)
    Субтитры: русские (Full), английские (Full)
    Время просмотра: 01: 34: 08
    Главный режиссер: Джон Тёртелтауб

    Актеры
    Леон(Derice Bannock) , Даг Э. Даг(Sanka Coffie) , Роул Д. Льюис(Junior Bevil) , Мэлик Йоба(Yul Brenner) , Джон Кэнди(Irv) , Рэймонд Дж. Бэрри(Kurt Hemphill) , Питер Аутербридж(Josef Grool) , Пол Койер(Roger) , Лэрри Гилмен(Larry) , Чарльз Хайатт(Whitby Bevil - Sr.) , Уинстон Стона(Coolidge) , Бертина Маколи(Joy Bannock)


    Описание фильма

    Четверо спортсменов из Ямайки мечтают ни много, ни мало - об участии в Олимпиаде. Причем им не важно в каком виде спорта выступать. А почему бы не бобслей!?
    Чего только не сделаешь на пути к заветной мечте. Пусть даже этот путь ледяной, а мчаться приходится в непонятном снаряде.
    Рейтинг:

    MPAA: PG- Рекомендуется присутствие родителей
    Качество фильма: WEB-DL 1080p
    Тип видео: MKV
    Информация о видео: AVC, 1912x1030 (1.856), 5140 kbps, 25 fps, 0, 104 bpp
    Информация о звуке №1: русский/AC3/2.0/48 kHz/256 kbps/16 bit |DVO|
    Информация о звуке №2: русский/AC3/5.1/48 kHz/448 kbps/16 bit |AVO, В.Горчаков|
    Информация о звуке №3: русский/AC3/2.0/48 kHz/256 kbps/16 bit |AVO, В.Дохалов|
    Информация о звуке №4: русский/AC3/5.1/48 kHz/448 kbps/16 bit |AVO, A.Толстобров|
    Информация о звуке №5: английский/AC3/5.1/48 kHz/448 kbps/16 bit
    Семпл

    ОтчетМедиаИнфо

    General
    Unique ID : 246475589580190715424027222680754450918 (0xB96D78CB60B6CD20A32C7352ACB3F1E6)
    Complete name : E: Cool.Runnings.1993.WEB-DL.1080p.mkv
    Format : Matroska
    Format version : Version 4/Version 2
    File size : 4.69 GiB
    Duration : 1h 34mn
    Overall bit rate mode : Variable
    Overall bit rate : 7 138 Kbps
    Movie name : Крутые виражи (1993) WEB-DL 1080p
    Encoded date : UTC 2016-06-14 19: 35: 39
    Writing application : mkvmerge v9.2.0 (;Photograph;) 64bit
    Writing library : libebml v1.3.3 + libmatroska v1.4.4
    DURATION : 01: 28: 56.739000000
    NUMBER_OF_FRAMES : 1123
    NUMBER_OF_BYTES : 72196
    _STATISTICS_WRITING_APP : mkvmerge v9.2.0 (;Photograph;) 64bit
    _STATISTICS_WRITING_DATE_UTC : 2016-06-14 19: 35: 39
    _STATISTICS_TAGS : BPS DURATION NUMBER_OF_FRAMES NUMBER_OF_BYTES
    Video
    ID : 1
    Format : AVC
    Format/Info : Advanced Video Codec
    Format profile : Main@L4.0
    Format settings, CABAC : Yes
    Format settings, ReFrames : 2 frames
    Codec ID : V_MPEG4/ISO/AVC
    Duration : 1h 34mn
    Bit rate mode : Variable
    Bit rate : 5 140 Kbps
    Maximum bit rate : 768 Kbps
    Width : 1 912 pixels
    Height : 1 030 pixels
    Display aspect ratio : 1.856
    Frame rate : 25.000 fps
    Color space : YUV
    Chroma subsampling : 4: 2: 0
    Bit depth : 8 bits
    Scan type : Progressive
    Bits/(Pixel*Frame) : 0.104
    Stream size : 3.38 GiB (72%)
    Language : English
    Default : Yes
    Forced : No
    Audio #1
    ID : 2
    Format : AC-3
    Format/Info : Audio Coding 3
    Mode extension : CM (complete main)
    Codec ID : A_AC3
    Duration : 1h 34mn
    Bit rate mode : Constant
    Bit rate : 256 Kbps
    Channel(s) : 2 channels
    Channel positions : Front: L R
    Sampling rate : 48.0 KHz
    Bit depth : 16 bits
    Compression mode : Lossy
    Stream size : 172 MiB (4%)
    Title : DVO
    Language : Russian
    Default : Yes
    Forced : No
    Audio #2
    ID : 3
    Format : AC-3
    Format/Info : Audio Coding 3
    Mode extension : CM (complete main)
    Codec ID : A_AC3
    Duration : 1h 34mn
    Bit rate mode : Constant
    Bit rate : 448 Kbps
    Channel(s) : 6 channels
    Channel positions : Front: L C R, Side: L R, LFE
    Sampling rate : 48.0 KHz
    Bit depth : 16 bits
    Compression mode : Lossy
    Stream size : 302 MiB (6%)
    Title : AVO В.Горчаков
    Language : Russian
    Default : No
    Forced : No
    Audio #3
    ID : 4
    Format : AC-3
    Format/Info : Audio Coding 3
    Mode extension : CM (complete main)
    Codec ID : A_AC3
    Duration : 1h 34mn
    Bit rate mode : Constant
    Bit rate : 256 Kbps
    Channel(s) : 2 channels
    Channel positions : Front: L R
    Sampling rate : 48.0 KHz
    Bit depth : 16 bits
    Compression mode : Lossy
    Stream size : 172 MiB (4%)
    Title : AVO В.Дохалов
    Language : Russian
    Default : No
    Forced : No
    Audio #4
    ID : 5
    Format : AC-3
    Format/Info : Audio Coding 3
    Mode extension : CM (complete main)
    Codec ID : A_AC3
    Duration : 1h 34mn
    Bit rate mode : Constant
    Bit rate : 448 Kbps
    Channel(s) : 6 channels
    Channel positions : Front: L C R, Side: L R, LFE
    Sampling rate : 48.0 KHz
    Bit depth : 16 bits
    Compression mode : Lossy
    Stream size : 302 MiB (6%)
    Title : AVO A.Толстобров
    Language : Russian
    Default : No
    Forced : No
    Audio #5
    ID : 6
    Format : AC-3
    Format/Info : Audio Coding 3
    Mode extension : CM (complete main)
    Codec ID : A_AC3
    Duration : 1h 34mn
    Bit rate mode : Constant
    Bit rate : 448 Kbps
    Channel(s) : 6 channels
    Channel positions : Front: L C R, Side: L R, LFE
    Sampling rate : 48.0 KHz
    Bit depth : 16 bits
    Compression mode : Lossy
    Stream size : 302 MiB (6%)
    Title : Original
    Language : English
    Default : No
    Forced : No
    Text #1
    ID : 7
    Format : UTF-8
    Codec ID : S_TEXT/UTF8
    Codec ID/Info : UTF-8 Plain Text
    Title : Full
    Language : Russian
    Default : No
    Forced : No
    Text #2
    ID : 8
    Format : UTF-8
    Codec ID : S_TEXT/UTF8
    Codec ID/Info : UTF-8 Plain Text
    Title : Full
    Language : English
    Default : No
    Forced : No
    Скриншоты


    Онлайн видео Крутые виражи


    Размер скачиваемого торрента: 4.69 GB (5039773196 Bytes)

    Крутые виражи/Cool Runnings (1993) WEB-DL 1080p | P2, А
    загрузка...
    Рейтинг →
     (голосов: 1, оценка 3/5, голосовать можно 1 раз )

    Другие торренты по теме:

  • Крутые виражи / Cool Runnings (1993) DVDRip от KinoRay Sheikn | P2, A
  • Крутые виражи / Cool Runnings (1993) WEBRip 1080p | P2, А


    • Комментарии (0):

      Информация

      Информация

        Посетители, находящиеся в группе Гости, не могут оставлять комментарии в данной новости.

        ↓ Меню



        ↓ Опрос

        А Вы добавили сайт в закладки?
        Да
        Не


        Top 10 за месяц (Фильмы)