.
Авторизация | Регистрация
Хочешь лучшие торренты? Добавь свой email!
Добавить
» » Адская кухня / Paradise Alley (1978) BDRip-AVC | P торрент скачать бесплатно




    Адская кухня / Paradise Alley (1978) BDRip-AVC | P торрент скачать бесплатно

    Опубликовал: Админ | Дата: 16-06-2016, 05:00 | Просмотров: 77



    Создали в: США, Image Ten
    Категория жанра: Драма
    Время просмотра: 01: 48: 56
    Перевод текста: Профессиональный (многоголосый, закадровый)
    Субтитры: Английский
    Главный режиссер: Сильвестр Сталлоне
    Актеры: Сильвестр Сталлоне, Ли Каналито, Арманд Ассанте, Фрэнк МакРей, Энн Арчер, Кевин Конуэй, Терри Фанк, Джойс Ингаллс, Джо Спинелл, Эме Экклес.

    Описание фильма

    Нью-Йорк, 1946 год. У трех братьев Карбони — Виктора, Ленни и Космо — одна единственная мечта в жизни: вырваться из самого бандитского района Нью-Йорка под названием Адская кухня. Но для этого нужно разорвать круг беспросветной бедности, в которой они живут уже много лет. Предприимчивый Космо решает, что надежда заработать много денег все-таки есть. Он предлагает Виктору, самому сильному и спортивному из них, принять участие в серии матчей на рэстлинг-ринге…
    Релиз подготовил: K.E.N
    Качество фильма видео: BDRip-AVC
    Информация о видео: AVC, 1024x556 (16: 9), 23.976 fps, 2 623 Kbps (0.192 bit/pixel)
    Информация о звуке #1: AC-3, 48.0 KHz, 2 ch, 192 Kbps, CBR (Russian) - многоголосый (Настроение Видео)
    Информация о звуке #2: AC-3, 48.0 KHz, 2 ch, 192 Kbps, CBR (Russian) - многоголосый (СТС)
    Информация о звуке #3: AC-3, 48.0 KHz, 2 ch, 192 Kbps, CBR (English)
    Доп.инфа
    Как по мне так, переводы одинаковые. Тем не менее оставил оба, как было на Blu-Ray Remux (1080p)
    Субтитры перебивать в *srt не стал, по причине хронической лени
    Mediainfo:

    Формат : Matroska
    Версия формата : Version 2
    Размер файла : 2, 45 Гбайт
    Продолжительность : 1 ч. 48 м.
    Общий поток : 3222 Кбит/сек
    Дата кодирования : UTC 2016-06-14 08: 47: 39
    Программа кодирования : mkvmerge v5.3.0 (;I could have danced;) built on Feb 9 2012 10: 38: 07
    Библиотека кодирования : libebml v1.2.3 + libmatroska v1.3.0
    Attachment : Yes
    Видео
    Идентификатор : 1
    Формат : AVC
    Формат/Информация : Advanced Video Codec
    Профиль формата : High@L4.1
    Параметр CABAC формата : Да
    Параметр ReFrames формата : 12 кадров
    Идентификатор кодека : V_MPEG4/ISO/AVC
    Продолжительность : 1 ч. 48 м.
    Битрейт : 2623 Кбит/сек
    Ширина : 1024 пикселя
    Высота : 556 пикселей
    Соотношение сторон : 1, 85: 1
    Режим частоты кадров : Постоянный
    Частота кадров : 23, 976 кадра/сек
    Цветовое пространство : YUV
    Субдискретизация насыщенности : 4: 2: 0
    Битовая глубина : 8 бит
    Тип развёртки : Прогрессивная
    Бит/(Пиксели*Кадры) : 0.192
    Размер потока : 1, 97 Гбайт (80%)
    Библиотека кодирования : x264 core 146 r2538 121396c
    Настройки программы : cabac=1/ref=12/deblock=1: -2: -2/analyse=0x3: 0x133/me=umh/subme=10/psy=1/psy_rd=1.00: 0.10/mixed_ref=1/me_range=32/chroma_me=1/trellis=2/8x8dct=1/cqm=0/deadzone=21, 11/fast_pskip=0/chroma_qp_offset=-3/threads=12/lookahead_threads=2/sliced_threads=0/nr=0/decimate=0/interlaced=0/bluray_compat=0/constrained_intra=0/bframes=9/b_pyramid=2/b_adapt=2/b_bias=0/direct=3/weightb=1/open_gop=0/weightp=2/keyint=240/keyint_min=23/scenecut=40/intra_refresh=0/rc_lookahead=40/rc=2pass/mbtree=0/bitrate=2623/ratetol=1.0/qcomp=0.60/qpmin=0/qpmax=69/qpstep=4/cplxblur=20.0/qblur=0.5/vbv_maxrate=50000/vbv_bufsize=62500/nal_hrd=none/filler=0/ip_ratio=1.40/pb_ratio=1.30/aq=2: 0.80
    Язык : English
    Default : Да
    Forced : Нет
    Аудио #1
    Идентификатор : 2
    Формат : AC-3
    Формат/Информация : Audio Coding 3
    Расширение режима : CM (complete main)
    Параметр Endianness формата : Big
    Идентификатор кодека : A_AC3
    Продолжительность : 1 ч. 48 м.
    Вид битрейта : Постоянный
    Битрейт : 192 Кбит/сек
    Каналы : 2 канала
    Расположение каналов : Front: L R
    Частота : 48, 0 КГц
    Битовая глубина : 16 бит
    Метод сжатия : С потерями
    Размер потока : 150 Мбайт (6%)
    Заголовок : Многоголосый закадровый, |Настроение Видео|
    Язык : Russian
    Default : Да
    Forced : Нет
    Аудио #2
    Идентификатор : 3
    Формат : AC-3
    Формат/Информация : Audio Coding 3
    Расширение режима : CM (complete main)
    Параметр Endianness формата : Big
    Идентификатор кодека : A_AC3
    Продолжительность : 1 ч. 48 м.
    Вид битрейта : Постоянный
    Битрейт : 192 Кбит/сек
    Каналы : 2 канала
    Расположение каналов : Front: L R
    Частота : 48, 0 КГц
    Битовая глубина : 16 бит
    Метод сжатия : С потерями
    Размер потока : 150 Мбайт (6%)
    Заголовок : Двухголосый закадровый закадровый, |т/л стс|
    Язык : Russian
    Default : Нет
    Forced : Нет
    Аудио #3
    Идентификатор : 4
    Формат : AC-3
    Формат/Информация : Audio Coding 3
    Расширение режима : CM (complete main)
    Параметр Endianness формата : Big
    Идентификатор кодека : A_AC3
    Продолжительность : 1 ч. 48 м.
    Вид битрейта : Постоянный
    Битрейт : 192 Кбит/сек
    Каналы : 2 канала
    Расположение каналов : Front: L R
    Частота : 48, 0 КГц
    Битовая глубина : 16 бит
    Метод сжатия : С потерями
    Размер потока : 150 Мбайт (6%)
    Язык : English
    Default : Нет
    Forced : Нет
    Текст
    Идентификатор : 5
    Формат : PGS
    Режим смешивания : zlib
    Идентификатор кодека : S_HDMV/PGS
    Идентификатор кодека/Информация : The same subtitle format used on BDs/HD-DVDs
    Язык : English
    Default : Да
    Forced : Нет

    Скриншоты:


    Онлайн видео Адская кухня


    Размер скачиваемого торрента: 2.45 GB (2633035589 Bytes)

    Адская кухня/Paradise Alley (1978) BDRip-AVC | P
    загрузка...
    Рейтинг →
     (голосов: 1, оценка 4/5, голосовать можно 1 раз )

    Другие торренты по теме:

  • Адская кухня / Hells Kitchen (2012) TVRip от Files-x
  • Адская кухня 2 (2013) IPTVRip
  • Адская кухня (2013) SATRip
  • Адская кухня / Hells Kitchen (2009) IPTVRip | Муз-ТВ
  • Адская кухня / Hells Kitchen (2010) TVRip | Муз-ТВ
  • Адская кухня / Hells Kitchen (2008) HDTVRip | Муз-ТВ
  • Адская кухня / Hells Kitchen (2013) PDTVRip | ViruseProject
  • Адская кухня / Hells Kitchen (2015) PDTVRip | ViruseProject


    • Комментарии (0):

      Информация

      Информация

        Посетители, находящиеся в группе Гости, не могут оставлять комментарии в данной новости.

        ↓ Меню



        ↓ Опрос

        А Вы добавили сайт в закладки?
        Да
        Не


        Top 10 за месяц (Фильмы)