.
Авторизация | Регистрация
Хочешь лучшие торренты? Добавь свой email!
Добавить
» » Синхронность / Synchronicity (2015) BDRip 1080p от ExKinoRay | L2 торрент скачать бесплатно




    Синхронность / Synchronicity (2015) BDRip 1080p от ExKinoRay | L2 торрент скачать бесплатно

    Опубликовал: Админ | Дата: 16-06-2016, 05:00 | Просмотров: 194



    Детально о кино
    Русское название: Синхронность
    Русское название в мировом прокате: Synchronicity
    Создали в: 2015
    Категория жанра: Фантастика, триллер, детектив
    Главный режиссер: Джейкоб Гентри

    Актеры
    Чад МакНайт, Брианна Дэвис, Эй Джей Боуэн, Скотт Пойтресс, Майкл Айронсайд, Клер Бронсон, Эшли Дрейтон, Дерек Райан Дьюк, Эль Сункара

    Сюжет фильма

    Команда физиков во главе с Джимом Билом строит маленькую копию Большого адронного коллайдера и открывает червоточину в пространственно-временном континууме, делающую путешествия во времени реальностью. Заветное словосочетание будоражит умы корпоративных магнатов, но создатель машины времени, как водится, не хочет, чтобы грязными сапогами топтались по благородному делу. В попытках сохранить права на свое изобретение он встречается с загадочной femme fatale Эбби, но невольно выдает ей все свои секреты. Незадачливый ученый, уверенный что девушка заодно с одним из толстосумов, отправляется в прошлое, чтобы исправить ошибку, но путешествие преподносит ему сюрпризы — правду о девушке, о машине и о будущем самого Джима…

    Снималось в: США
    Киностудия: POP Films
    Время просмотра: 01: 40: 39
    Перевод текста: Любительский двухголосый (закадровый) | Rustorrents Production
    Файл
    Кодек для видео: MPEG-4
    Качество фильма: BDRip 1080p
    Информация о видео: 1920x800, 9663 Kbit/s, 23.976 fps
    Информация о звуке:
    Информация о звуке #01: 48 kHz, AC3, 5.1, 640 Kbps | Любительский двухголосый (закадровый), Rustorrents Production | AC3
    Информация о звуке #02: 48 kHz, DTS, 5.1, 1510 kbps | Оригинал | DTS
    Субтитры: Английские
    Релиз подготовил: Автор релиза:

    MI
    General
    Unique ID : 253069702686852590740834515116914329753 (0xBE6373ABEDD351D29F6B3759C52F4899)
    Complete name : F: VideoSynchronicity.2015.BDRip.1080p.ExKinoRay.mkv
    Format : Matroska
    Format version : Version 4/Version 2
    File size : 8.29 GiB
    Duration : 1h 40mn
    Overall bit rate : 11.8 Mbps
    Movie name : Synchronicity.2015.BDRip.1080p.ExKinoRay
    Encoded date : UTC 2016-06-15 22: 32: 33
    Writing application : mkvmerge v8.3.0 (;Over the Horizon;) 64bit
    Writing library : libebml v1.3.1 + libmatroska v1.4.2
    Video
    ID : 1
    Format : AVC
    Format/Info : Advanced Video Codec
    Format profile : High@L4.1
    Format settings, CABAC : Yes
    Format settings, ReFrames : 5 frames
    Codec ID : V_MPEG4/ISO/AVC
    Duration : 1h 40mn
    Bit rate : 9 663 Kbps
    Width : 1 920 pixels
    Height : 800 pixels
    Display aspect ratio : 2.40: 1
    Frame rate mode : Constant
    Frame rate : 23.976 (24000/1001) fps
    Color space : YUV
    Chroma subsampling : 4: 2: 0
    Bit depth : 8 bits
    Scan type : Progressive
    Bits/(Pixel*Frame) : 0.262
    Stream size : 6.78 GiB (82%)
    Writing library : x264 core 148 r2694 3b70645
    Encoding settings : cabac=1/ref=5/deblock=1: -2: -1/analyse=0x3: 0x133/me=umh/subme=10/psy=1/psy_rd=1.00: 0.00/mixed_ref=1/me_range=32/chroma_me=1/trellis=2/8x8dct=1/cqm=0/deadzone=21, 11/fast_pskip=0/chroma_qp_offset=-2/threads=13/lookahead_threads=2/sliced_threads=0/nr=0/decimate=0/interlaced=0/bluray_compat=0/constrained_intra=0/bframes=8/b_pyramid=2/b_adapt=2/b_bias=0/direct=3/weightb=1/open_gop=0/weightp=2/keyint=95/keyint_min=8/scenecut=40/intra_refresh=0/rc_lookahead=95/rc=crf/mbtree=1/crf=15.0/qcomp=0.75/qpmin=0/qpmax=35/qpstep=2/vbv_maxrate=38000/vbv_bufsize=30000/crf_max=0.0/nal_hrd=none/filler=0/ip_ratio=1.40/aq=1: 0.80
    Language : English
    Default : Yes
    Forced : No
    Audio #1
    ID : 2
    Format : AC-3
    Format/Info : Audio Coding 3
    Mode extension : CM (complete main)
    Format settings, Endianness : Big
    Codec ID : A_AC3
    Duration : 1h 40mn
    Bit rate mode : Constant
    Bit rate : 640 Kbps
    Channel(s) : 6 channels
    Channel positions : Front: L C R, Side: L R, LFE
    Sampling rate : 48.0 KHz
    Frame rate : 31.250 fps (1536 spf)
    Compression mode : Lossy
    Stream size : 460 MiB (5%)
    Title : DVO DD 5.1
    Language : Russian
    Default : Yes
    Forced : No
    Audio #2
    ID : 3
    Format : DTS
    Format/Info : Digital Theater Systems
    Mode : 16
    Format settings, Endianness : Big
    Codec ID : A_DTS
    Duration : 1h 40mn
    Bit rate mode : Constant
    Bit rate : 1 509 Kbps
    Channel(s) : 6 channels
    Channel positions : Front: L C R, Side: L R, LFE
    Sampling rate : 48.0 KHz
    Frame rate : 93.750 fps (512 spf)
    Bit depth : 24 bits
    Compression mode : Lossy
    Stream size : 1.06 GiB (13%)
    Title : Original
    Language : English
    Default : No
    Forced : No
    Text #1
    ID : 4
    Format : UTF-8
    Codec ID : S_TEXT/UTF8
    Codec ID/Info : UTF-8 Plain Text
    Duration : 59mn 46s
    Bit rate : 1 bps
    Count of elements : 13
    Stream size : 712 Bytes (0%)
    Language : Russian
    Default : Yes
    Forced : No
    Text #2
    ID : 5
    Format : UTF-8
    Codec ID : S_TEXT/UTF8
    Codec ID/Info : UTF-8 Plain Text
    Duration : 1h 35mn
    Bit rate : 58 bps
    Count of elements : 1285
    Stream size : 41.2 KiB (0%)
    Title : Full
    Language : English
    Default : No
    Forced : No
    Text #3
    ID : 6
    Format : UTF-8
    Codec ID : S_TEXT/UTF8
    Codec ID/Info : UTF-8 Plain Text
    Duration : 1h 35mn
    Bit rate : 57 bps
    Count of elements : 1239
    Stream size : 40.3 KiB (0%)
    Title : SDH
    Language : English
    Default : No
    Forced : No
    Menu
    00: 00: 00.000 : en: 00: 00: 00.000
    00: 11: 54.422 : en: 00: 11: 54.422
    00: 21: 00.384 : en: 00: 21: 00.384
    00: 29: 41.780 : en: 00: 29: 41.780
    00: 39: 58.605 : en: 00: 39: 58.605
    00: 47: 57.875 : en: 00: 47: 57.875
    00: 57: 02.961 : en: 00: 57: 02.961
    01: 05: 19.582 : en: 01: 05: 19.582
    01: 12: 57.373 : en: 01: 12: 57.373
    01: 22: 52.176 : en: 01: 22: 52.176
    01: 30: 09.321 : en: 01: 30: 09.321
    01: 36: 18.147 : en: 01: 36: 18.147
    Скриншоты


    Онлайн видео Синхронность


    Размер скачиваемого торрента: 8.29 GB (8903944162 Bytes)

    Синхронность/Synchronicity (2015) BDRip 1080p от ExKinoRay | L2
    загрузка...
    Рейтинг →
     (голосов: 1, оценка 4/5, голосовать можно 1 раз )

    Другие торренты по теме:

  • Синхронность / Synchronicity (2015) BDRemux 1080p от ExKinoRay | L2


    • Комментарии (0):

      Информация

      Информация

        Посетители, находящиеся в группе Гости, не могут оставлять комментарии в данной новости.

        ↓ Меню



        ↓ Опрос

        А Вы добавили сайт в закладки?
        Да
        Не


        Top 10 за месяц (Фильмы)