.
Авторизация | Регистрация
» » Дивергент, глава 3: За стеной / Allegiant (2016) WEB-DL 1080p | iTunes скачать торрент бесплатно




    Дивергент, глава 3: За стеной / Allegiant (2016) WEB-DL 1080p | iTunes скачать торрент бесплатно

    Опубликовал: Админ | Дата: 17-06-2016, 05:00 | Просмотров: 204



    Детально о кино
    Русское название: Дивергент, глава 3: За стеной
    Русское название в мировом прокате: Allegiant
    Создали в: 2016
    Снималось в: США
    Категория жанра: фантастика, боевик, триллер, детектив, приключения
    Перевод текста: Дубляж - iTunes
    Время просмотра: 02: 00: 20
    Главный режиссер: Роберт Швентке

    Актеры
    Шейлин Вудли(Tris) , Тео Джеймс(Four) , Энсел Элгорт(Caleb) , Зои Кравиц(Christina) , Майлз Теллер(Peter) , Джефф Дэниелс(David) , Наоми Уоттс(Evelyn) , Мэгги Кью(Tori) , Билл Скарсгард(Matthew) , Кейнан Лонсдейл(Uriah) , Надиа Хилкер(Nita) , Октавия Спенсер(Johanna Reyes)


    Описание фильма

    Трис и Фор впервые покидают город и своих близких и оказываются в опасном мире за стеной, отделяющей Чикаго, где им открывается шокирующая правда.
    Они должны быстро разобраться, кому можно доверять, так как битва, разгорающаяся за стенами города, угрожает всему человечеству. Чтобы выжить, Трис придется сделать непростой выбор между мужеством, верностью, любовью и необходимостью идти на жертвы.
    Рейтинг:

    MPAA: PG-13- Детям до 13 лет просмотр не желателен
    Качество фильма: WEB-DL 1080p
    Тип видео: MKV
    Информация о видео: AVC, 1920x1080 (16: 9), 5014 kbps, 24 fps, 0, 101 bpp
    Информация о звуке: русский/AC3/5.1/48 kHz/384 kbps/16 bit |Дубляж, iTunes|
    Семпл

    Релиз подготовил:

    ОтчетМедиаИнфо

    General
    Unique ID : 230647478368628320691401920298268677975 (0xAD8516A92A452CB1BF338F2ACD3ED757)
    Complete name : E: Allegiant.2016.1080p.WEB-DL.Rus.HDCLUB.mkv
    Format : Matroska
    Format version : Version 2
    File size : 4.63 GiB
    Duration : 2h 0mn
    Overall bit rate : 5 508 Kbps
    Movie name : Allegiant (2016) - Release for HDCLUB
    Encoded date : UTC 2016-06-16 07: 53: 26
    Writing application : mkvmerge v3.4.0 (;Rapunzel;) built on May 15 2010 09: 38: 20
    Writing library : libebml v0.8.0 + libmatroska v0.9.0
    Video
    ID : 1
    Format : AVC
    Format/Info : Advanced Video Codec
    Format profile : High@L4.1
    Format settings, CABAC : Yes
    Format settings, ReFrames : 4 frames
    Codec ID : V_MPEG4/ISO/AVC
    Duration : 2h 0mn
    Bit rate : 5 015 Kbps
    Width : 1 920 pixels
    Height : 1 080 pixels
    Display aspect ratio : 16: 9
    Frame rate : 24.000 fps
    Color space : YUV
    Chroma subsampling : 4: 2: 0
    Bit depth : 8 bits
    Scan type : Progressive
    Bits/(Pixel*Frame) : 0.101
    Stream size : 4.22 GiB (91%)
    Title : Allegiant (2016) - Release for HDCLUB
    Language : English
    Default : Yes
    Forced : No
    Audio
    ID : 2
    Format : AC-3
    Format/Info : Audio Coding 3
    Mode extension : CM (complete main)
    Codec ID : A_AC3
    Duration : 2h 0mn
    Bit rate mode : Constant
    Bit rate : 384 Kbps
    Channel(s) : 6 channels
    Channel positions : Front: L C R, Side: L R, LFE
    Sampling rate : 48.0 KHz
    Bit depth : 16 bits
    Compression mode : Lossy
    Stream size : 331 MiB (7%)
    Title : AC3 5.1 @ 384 kbps - DUB, iTunes
    Language : Russian
    Default : Yes
    Forced : No
    Скриншоты


    Онлайн видео Дивергент, глава 3: За стеной


    Размер скачиваемого торрента: 4.63 GB (4971795084 Bytes)

    Дивергент, глава 3: За стеной/Allegiant (2016) WEB-DL 1080p | iTunes
    загрузка...
    Рейтинг →
     (голосов: 1, оценка 5/5, голосовать можно 1 раз )

    Другие торренты по теме:

  • Дивергент, глава 2: Инсургент / Insurgent (2015) CAMRip скачать торрент бесплатно
  • Дивергент, глава 2: Инсургент / Insurgent (2015) WEBRip | Звук с TS скачать торрент бесплатно
  • Дивергент, глава 2: Инсургент / Insurgent (2015) HDTVRip–AVC | Чистый звук скачать торрент бесплатно
  • Дивергент, глава 2: Инсургент / Insurgent (2015) HDTVRip | Чистый звук скачать торрент бесплатно
  • Дивергент, глава 2: Инсургент / Insurgent (2015) HDRip от Scarabey | Чистый звук скачать торрент бесплатно
  • Дивергент, глава 2: Инсургент / Insurgent (2015) BDRip 720p | iTunes скачать торрент бесплатно
  • Дивергент, глава 2: Инсургент / Insurgent (2015) Blu-ray 1080p от HDCLUB | RUS Transfer | D | лицензия скачать торрент бесплатно
  • Дивергент, глава 2: Инсургент / Insurgent (2015) BDRip 720p | Лицензия скачать торрент бесплатно


    • Комментарии (0):

      Информация

      Информация

        Посетители, находящиеся в группе Гости, не могут оставлять комментарии в данной новости.

        ↓ Меню



        ↓ Опрос

        А Вы добавили сайт в закладки?
        Да
        Не


        Top 10 за неделю (Фильмы)