.
Авторизация | Регистрация
Хочешь лучшие торренты? Добавь свой email!
Добавить
» » Кровавый апельсин / Blood Orange (2016) WEB-DL 720p | L торрент скачать бесплатно




    Кровавый апельсин / Blood Orange (2016) WEB-DL 720p | L торрент скачать бесплатно

    Опубликовал: Админ | Дата: 17-06-2016, 05:00 | Просмотров: 64



    Детально о кино
    Русское название: Кровавый апельсин
    Русское название в мировом прокате: Blood Orange
    Создали в: 2016
    Категория жанра: триллер
    Главный режиссер: Тоби Тобиаш

    Актеры
    Бен Лэмб, Кейси Барнфилд, Антонио Магро, Игги Поп…

    Сюжет фильма
    Триллер Кровавый апельсин с Игги Попом в главной роли. Певец сыграет стареющую рок-звезду, который проживает на уединённой вилле в Испании, со своей молодой женой Изабелль. Однажды их уют нарушает появление мужчины по имени Лукас. Он был некогда возлюбленным Изабелль и теперь утверждает, что она украла у него наследство и требует вернуть.

    Снималось в: Великобритания, Испания/Lightworks Film, Trigger Films
    Время просмотра: 01: 23: 31
    Перевод текста: Любительский (многоголосый) студия Paradox
    Файл
    Качество фильма: WEB-DL 720p
    Тип видео: MKV
    Информация о видео: AVC, 3783 Kb/s, 1280x544
    Информация о звуке: Russian: AC3, 192 Kb/s (2 ch), English: AC3, 384 Kb/s (6 ch)
    Субтитры: English


    MediaInfo:
    General
    Unique ID : 187238008010662469333553229201949204116 (0x8CDCBA87DB6C7BEFB608AE662BC21E94)
    Complete name : H: ДИСК1.ФИЛЬМЫКровавый апельсин Blood Orange (2016)KpoBaBbli.ATTeJlbCuH.2016.L.WEB-DL.720p.mkv
    Format : Matroska
    Format version : Version 4/Version 2
    File size : 2.59 GiB
    Duration : 1h 23mn
    Overall bit rate : 4 448 Kbps
    Movie name : Release by basma4i
    Encoded date : UTC 2016-06-16 17: 52: 40
    Writing application : mkvmerge v8.2.0 (;World of Adventure;) 64bit
    Writing library : libebml v1.3.1 + libmatroska v1.4.2
    DURATION : 01: 15: 55.221000000
    NUMBER_OF_FRAMES : 538
    NUMBER_OF_BYTES : 20360
    _STATISTICS_WRITING_APP : mkvmerge v8.2.0 (;World of Adventure;) 64bit
    _STATISTICS_WRITING_DATE_UTC : 2016-06-16 17: 52: 40
    _STATISTICS_TAGS : BPS DURATION NUMBER_OF_FRAMES NUMBER_OF_BYTES
    Video
    ID : 1
    Format : AVC
    Format/Info : Advanced Video Codec
    Format profile : Main@L4.1
    Format settings, CABAC : Yes
    Format settings, ReFrames : 4 frames
    Codec ID : V_MPEG4/ISO/AVC
    Duration : 1h 23mn
    Bit rate : 3 783 Kbps
    Width : 1 280 pixels
    Height : 544 pixels
    Display aspect ratio : 2.35: 1
    Frame rate mode : Constant
    Frame rate : 24.000 fps
    Color space : YUV
    Chroma subsampling : 4: 2: 0
    Bit depth : 8 bits
    Scan type : Progressive
    Bits/(Pixel*Frame) : 0.226
    Stream size : 2.21 GiB (85%)
    Title : Blood Orange (2016) WEB-DL 720p
    Language : English
    Default : Yes
    Forced : No
    Audio #1
    ID : 2
    Format : AC-3
    Format/Info : Audio Coding 3
    Mode extension : CM (complete main)
    Format settings, Endianness : Big
    Codec ID : A_AC3
    Duration : 1h 23mn
    Bit rate mode : Constant
    Bit rate : 192 Kbps
    Channel(s) : 2 channels
    Channel positions : Front: L R
    Sampling rate : 48.0 KHz
    Compression mode : Lossy
    Stream size : 115 MiB (4%)
    Title : Paradox
    Language : Russian
    Default : Yes
    Forced : No
    Audio #2
    ID : 3
    Format : AC-3
    Format/Info : Audio Coding 3
    Mode extension : CM (complete main)
    Format settings, Endianness : Big
    Codec ID : A_AC3
    Duration : 1h 23mn
    Bit rate mode : Constant
    Bit rate : 384 Kbps
    Channel(s) : 6 channels
    Channel positions : Front: L C R, Side: L R, LFE
    Sampling rate : 48.0 KHz
    Compression mode : Lossy
    Stream size : 229 MiB (9%)
    Title : Original
    Language : English
    Default : No
    Forced : No
    Text
    ID : 4
    Format : UTF-8
    Codec ID : S_TEXT/UTF8
    Codec ID/Info : UTF-8 Plain Text
    Language : English
    Default : Yes
    Forced : No
    Скриншоты


    Онлайн видео Кровавый апельсин


    Размер скачиваемого торрента: 2.59 GB (2786037119 Bytes)

    Кровавый апельсин/Blood Orange (2016) WEB-DL 720p | L
    загрузка...
    Рейтинг →
     (голосов: 1, оценка 5/5, голосовать можно 1 раз )

    Другие торренты по теме:

  • Кровавый апельсин / Blood Orange (2016) WEB-DL 1080p | L1
  • Кровавый апельсин / Blood Orange (2016) WEB-DL 1080p | L


    • Комментарии (0):

      Информация

      Информация

        Посетители, находящиеся в группе Гости, не могут оставлять комментарии в данной новости.

        ↓ Меню



        ↓ Опрос

        А Вы добавили сайт в закладки?
        Да
        Не


        Top 10 за месяц (Фильмы)