.
Авторизация | Регистрация
Хочешь лучшие торренты? Добавь свой email!
Добавить
» » Педагогическая поэма (1955) DVDRip от New-Team торрент скачать бесплатно




    Педагогическая поэма (1955) DVDRip от New-Team торрент скачать бесплатно

    Опубликовал: Админ | Дата: 17-06-2016, 05:01 | Просмотров: 136



    Снималось в: СССР
    Создали в: Киевская киностудия
    Категория жанра: драма, биография
    Создали в: 1955
    Время просмотра: 01: 44: 26
    Перевод текста: Не требуется
    Субтитры подготовлены: нет
    Оригинальная аудиодорожка: русский
    Главный режиссер: Алексей Маслюков, Мечислава Маевская

    Актеры

    Владимир Емельянов, Михаил Покотило, Елена Лицканович, Нина Крачковская, Константин Михайлов, Павел Кадочников, Георгий Юматов, Юрий Саранцев, Юлиан Панич, Павел Грубник, Яша Паничев, А. Чистик, Миша Чернов, Валерий Зиновьев (II), Александр Суснин, В. Амелин, Евгений Зиновьев, Костя Евгеньев, Иван Поплавец, Лемар Бурыкин, Ролан Быков, Владимир Борискин...
    Полный список актёров
    Описание:
    По одноименному роману А. С. Макаренко.
    В 1920 году в селе Ракитном под Полтавой была создана первая колония для беспризорных детей. О работе учителей с непокорными и неподдающимися детьми улиц рассказывает этот фильм. Предстояло перевоспитать очень трудных подростков, приобщить их к труду, вырастить честных граждан. Немало придется пережить Антону Семеновичу Макаренко, прежде чем он найдет поход к ребятам.



    Источник: DVD9 R5
    Качество фильма видео: DVDRip
    Тип видео видео: AVI
    Информация о видео: 576x432 (4: 3), 25 fps, XviD ~ 860 kbps avg, 0.138 bit/pixel
    Информация о звуке: 48 kHz, MP3 2.0, 128 kbps
    Раздача от:
    MediaInfo

    Общее
    Полное имя : Pedagogicheskaya. poyema.1955.DVDRip-745_New-team_by_AVP_Studio.avi
    Формат : AVI
    Формат/Информация : Audio Video Interleave
    Размер файла : 746 Мбайт
    Продолжительность : 1 ч. 44 м.
    Общий поток : 998 Кбит/сек
    Программа кодирования : VirtualDubMod 1.5.10.3 | www.virtualdub-fr.org || (build 2550/release)
    Библиотека кодирования : VirtualDubMod build 2550/release
    Видео
    Идентификатор : 0
    Формат : MPEG-4 Visual
    Профиль формата : Advanced Simple@L5
    Параметр BVOP формата : 1
    Параметр QPel формата : Нет
    Параметр GMC формата : Без точки перехода
    Параметр матрицы формата : Выборочная
    Идентификатор кодека : XVID
    Идентификатор кодека/Подсказка : XviD
    Продолжительность : 1 ч. 44 м.
    Битрейт : 860 Кбит/сек
    Ширина : 576 пикселей
    Высота : 432 пикселя
    Соотношение сторон : 4: 3
    Частота кадров : 25, 000 кадров/сек
    Цветовое пространство : YUV
    Субдискретизация насыщенности : 4: 2: 0
    Битовая глубина : 8 бит
    Тип развёртки : Прогрессивная
    Метод сжатия : С потерями
    Бит/(Пиксели*Кадры) : 0.138
    Размер потока : 643 Мбайт (86%)
    Библиотека кодирования : XviD 1.2.1 (UTC 2008-12-04)
    Аудио
    Идентификатор : 1
    Формат : MPEG Audio
    Версия формата : Version 1
    Профиль формата : Layer 3
    Идентификатор кодека : 55
    Идентификатор кодека/Подсказка : MP3
    Продолжительность : 1 ч. 44 м.
    Вид битрейта : Постоянный
    Битрейт : 128 Кбит/сек
    Каналы : 2 канала
    Частота : 48, 0 КГц
    Метод сжатия : С потерями
    Размер потока : 95, 6 Мбайт (13%)
    Выравнивание : Соединение по промежуткам
    Продолжительность промежутка : 40 мс. (1, 00 видеокадр)
    Время предзагрузки промежутка : 504 мс.
    Библиотека кодирования : LAME3.99r
    Залил: AVPStudio

    Онлайн видео Педагогическая поэма (1955) DVDRip от New


    Размер скачиваемого торрента: 745.60 MB (781819904 Bytes)


    Педагогическая поэма (1955) DVDRip от New-Team
    загрузка...
    Рейтинг →
     (голосов: 1, оценка 5/5, голосовать можно 1 раз )

    Другие торренты по теме:

  • Антон Макаренко - Педагогическая поэма (2014) MP3 скачать через торрент бесплатно


    • Комментарии (0):

      Информация

      Информация

        Посетители, находящиеся в группе Гости, не могут оставлять комментарии в данной новости.

        ↓ Меню



        ↓ Опрос

        А Вы добавили сайт в закладки?
        Да
        Не


        Top 10 за месяц (Фильмы)