.
Авторизация | Регистрация




Ведьма (2015) HDTVRip-AVC скачать торрент бесплатно

Опубликовал: Админ | Дата: 17-06-2016, 13:59 | Просмотров: 78



Детально о кино
Русское название: Ведьма
Создали в: 2015
Категория жанра: драма, триллер
Главный режиссер: Дмитрий Федоров

Актеры
Мария Баева, Анатолий Горячев, Дарья Екамасова, Пётр Коврижных, Ольга Сырцова, Всеволод Николаев, Полина Шашуро, Максим Максимов, Софи Шуткина, Маргарита Спасибо

Сюжет фильма
Действие картины происходит в летнем молодёжном лагере у моря. Тоня — тихая, замкнутая и доверчивая девочка становится соседкой Людки — яркой, сильной и расчетливой девицы. Они влюбляются в одного мальчика. Кажется, что у робкой Тони нет никаких шансов против сексуальной Людки, но вдруг выясняется, что Тоня обладает сверхъестественными способностями, которые не может контролировать. Нелюдимый затравленный подросток, не понимающий природу своей страшной силы. Окружающие считают её самой настоящей ведьмой, не подозревая, что на самом деле ведьма не она…
Для кого-то эти каникулы станут последними, а те, кто смогут выжить — никогда уже не станут прежними…

Снималось в: Россия/Ракурс
Время просмотра: 01: 27: 02
Перевод текста: Оригинал
Файл
Качество фильма: HDTVRip-AVC
Тип видео: MKV
Информация о видео: AVC, 2600 Kb/s, 1024x576
Информация о звуке: MP2, 192 Kb/s (2 ch)
Субтитры: нет

MediaInfo:
General
Unique ID : 70992644046671587713514087536088321040 (0x3568AF9725A4DB7BD007AB2A49640C10)
Complete name : H: ДИСК2.ФИЛЬМЫ СНГВедьма 2015Vedma.2015.HDTVRip-AVC.mkv
Format : Matroska
Format version : Version 4/Version 2
File size : 1.70 GiB
Duration : 1h 27mn
Overall bit rate : 2 797 Kbps
Movie name : Vedma (2015) HDTVRip-AVC
Writing application : XviD4PSP 7.0.274 DAILY
Writing library : Lavf57.25.100
ENCODING_INFO : MPEGTS MKV/H264 X264 VBR-2P 2600kbps Произвольный/MP2 MP2 CBR 192kbps
MIMETYPE : image/png
FILENAME : cover.png
DURATION : 00: 00: 00.000000000
Attachements : cover.png
Video
ID : 1
Format : AVC
Format/Info : Advanced Video Codec
Format profile : High@L4.1
Format settings, CABAC : Yes
Format settings, ReFrames : 11 frames
Codec ID : V_MPEG4/ISO/AVC
Duration : 1h 27mn
Bit rate : 2 600 Kbps
Width : 1 024 pixels
Height : 576 pixels
Display aspect ratio : 16: 9
Frame rate mode : Constant
Frame rate : 25.000 fps
Color space : YUV
Chroma subsampling : 4: 2: 0
Bit depth : 8 bits
Scan type : Progressive
Bits/(Pixel*Frame) : 0.176
Stream size : 1.55 GiB (91%)
Writing library : x264 core 148 r2694M 3b70645
Encoding settings : cabac=1/ref=11/deblock=1: -3: -3/analyse=0x3: 0x133/me=umh/subme=11/psy=1/psy_rd=1.00: 0.20/mixed_ref=1/me_range=16/chroma_me=1/trellis=2/8x8dct=1/cqm=0/deadzone=21, 11/fast_pskip=1/chroma_qp_offset=-3/threads=11/lookahead_threads=1/sliced_threads=0/nr=0/decimate=1/interlaced=0/bluray_compat=0/constrained_intra=0/bframes=8/b_pyramid=2/b_adapt=2/b_bias=0/direct=3/weightb=1/open_gop=0/weightp=2/keyint=250/keyint_min=25/scenecut=40/intra_refresh=0/rc_lookahead=40/rc=2pass/mbtree=1/bitrate=2600/ratetol=1.0/qcomp=0.60/qpmin=0/qpmax=69/qpstep=4/cplxblur=20.0/qblur=0.5/ip_ratio=1.40/aq=1: 1.00
Default : Yes
Forced : No
DURATION : 01: 27: 02.600000000
Audio
ID : 2
Format : MPEG Audio
Format version : Version 1
Format profile : Layer 2
Codec ID : A_MPEG/L2
Codec ID/Hint : MP2
Duration : 1h 27mn
Bit rate mode : Constant
Bit rate : 192 Kbps
Channel(s) : 2 channels
Sampling rate : 48.0 KHz
Compression mode : Lossy
Stream size : 120 MiB (7%)
Language : Russian
Default : Yes
Forced : No
DURATION : 01: 27: 02.592000000
Скриншоты


Онлайн видео Ведьма (2015) HDTVRip


Размер скачиваемого торрента: 1.70 GB (1825879665 Bytes)

Ведьма (2015) HDTVRip-AVC
загрузка...
Рейтинг →
 (голосов: 1, оценка 3/5, голосовать можно 1 раз )

Другие торренты по теме:

  • Ведьма (2015) HDTVRip-AVC от Files-x скачать торрент бесплатно


    • Комментарии (0):

      Информация

      Информация

        Посетители, находящиеся в группе Гости, не могут оставлять комментарии в данной новости.

        ↓ Меню



        ↓ Опрос

        А Вы добавили сайт в закладки?
        Да
        Не


        Top 10 за неделю (Фильмы)