.
Авторизация | Регистрация
» » Попрыгунья (1955) DVDRip от New-Team скачать торрент бесплатно




    Попрыгунья (1955) DVDRip от New-Team скачать торрент бесплатно

    Опубликовал: Админ | Дата: 17-06-2016, 13:59 | Просмотров: 127



    Снималось в: СССР
    Создали в: Мосфильм
    Категория жанра: драма
    Создали в: 1955
    Время просмотра: 01: 25: 41
    Перевод текста: Не требуется
    Субтитры подготовлены: нет
    Оригинальная аудиодорожка: русский
    Главный режиссер: Самсон Самсонов

    Актеры

    Сергей Бондарчук, Людмила Целиковская, Владимир Дружников, Евгений Тетерин, А. Алексин, А. Бобровский, Василий Бокарев, Георгий Георгиу, Михаил Глузский, Алексей Кельберер, Сергей Комаров, Глеб Романов, Аркадий Цинман, Ян Янакиев...
    Полный список актёров
    Описание:
    Один из ранних фильмов Самсона Самсонова в характерном для него жанре экранизации. Постановка выполнена с бережным вниманием к авторскому тексту, верно передан чеховский дух.
    Главная герония постоянно находится в поисках выдающейся личности, не замечая того, что такой личностью по-настоящему является едва замечаемый ею муж, что она понимает только после его смерти.



    Источник: DVD5 R5
    Качество фильма видео: DVDRip
    Тип видео видео: AVI
    Информация о видео: 640x480 (4: 3), 25 fps, XviD ~ 1079 kbps avg, 0.140 bit/pixel
    Информация о звуке: 48 kHz, MP3 2.0, 128 kbps
    Раздача от:
    MediaInfo

    Общее
    Полное имя : Poprygunya.1955.DVDRip-745_New-team_by_AVP_Studio.avi
    Формат : AVI
    Формат/Информация : Audio Video Interleave
    Размер файла : 746 Мбайт
    Продолжительность : 1 ч. 25 м.
    Общий поток : 1217 Кбит/сек
    Программа кодирования : VirtualDubMod 1.5.10.3 | www.virtualdub-fr.org || (build 2550/release)
    Библиотека кодирования : VirtualDubMod build 2550/release
    Видео
    Идентификатор : 0
    Формат : MPEG-4 Visual
    Профиль формата : Advanced Simple@L5
    Параметр BVOP формата : 1
    Параметр QPel формата : Нет
    Параметр GMC формата : Без точки перехода
    Параметр матрицы формата : Выборочная
    Идентификатор кодека : XVID
    Идентификатор кодека/Подсказка : XviD
    Продолжительность : 1 ч. 25 м.
    Битрейт : 1079 Кбит/сек
    Ширина : 640 пикселей
    Высота : 480 пикселей
    Соотношение сторон : 4: 3
    Частота кадров : 25, 000 кадров/сек
    Цветовое пространство : YUV
    Субдискретизация насыщенности : 4: 2: 0
    Битовая глубина : 8 бит
    Тип развёртки : Прогрессивная
    Метод сжатия : С потерями
    Бит/(Пиксели*Кадры) : 0.140
    Размер потока : 661 Мбайт (89%)
    Библиотека кодирования : XviD 1.2.1 (UTC 2008-12-04)
    Аудио
    Идентификатор : 1
    Формат : MPEG Audio
    Версия формата : Version 1
    Профиль формата : Layer 3
    Идентификатор кодека : 55
    Идентификатор кодека/Подсказка : MP3
    Продолжительность : 1 ч. 25 м.
    Вид битрейта : Постоянный
    Битрейт : 128 Кбит/сек
    Каналы : 2 канала
    Частота : 48, 0 КГц
    Метод сжатия : С потерями
    Размер потока : 78, 4 Мбайт (11%)
    Выравнивание : Соединение по промежуткам
    Продолжительность промежутка : 40 мс. (1, 00 видеокадр)
    Время предзагрузки промежутка : 504 мс.
    Библиотека кодирования : LAME3.99r
    Залил: AVPStudio

    Онлайн видео Попрыгунья (1955) DVDRip от New


    Размер скачиваемого торрента: 745.59 MB (781803520 Bytes)


    Попрыгунья (1955) DVDRip от New-Team
    загрузка...
    Рейтинг →
     (голосов: 1, оценка 4/5, голосовать можно 1 раз )

    Другие торренты по теме:

  • Попрыгунья / 1955 / РУ / SATRip (AVC) скачать торрент бесплатно


    • Комментарии (0):

      Информация

      Информация

        Посетители, находящиеся в группе Гости, не могут оставлять комментарии в данной новости.

        ↓ Меню



        ↓ Опрос

        А Вы добавили сайт в закладки?
        Да
        Не


        Top 10 за неделю (Фильмы)