.
Авторизация | Регистрация
» » МакКью / McQ (1974) BDRip от Sem-te | P скачать торрент бесплатно




    МакКью / McQ (1974) BDRip от Sem-te | P скачать торрент бесплатно

    Опубликовал: Админ | Дата: 18-06-2016, 05:00 | Просмотров: 44



    Снималось в: США
    Категория жанра: Боевик, драма, криминал
    Создали в: 1974
    Время просмотра: 01: 51: 12
    Перевод текста: Профессиональный (многоголосый закадровый) ТВ Центр
    Субтитры подготовлены: нет
    Главный режиссер: Джон Стёрджес/John Sturges

    Актеры
    Джон Уэйн, Эдди Альберт, Дайана Малдур, Коллин Дьюхёрст, Клу Гулагер, Дэвид Хаддлстон, Джеймс Уоткинс, Аль Леттьери, Джули Адамс, Роджер Э. Мосли
    Описание: Лейтенант полиции Лон Маккью с огорчением узнает об убийстве своего друга и напарника Стэна Бойла. Маккью уверен, что за этим преступлением стоит самый крупный наркоторговец Сан-Франциско Мануэль Сантьяго, но у него нет улик для его ареста. Вместо этого Маккью избивает Сантьяго, за что его увольняют из полиции. Маккью все равно частным образом продолжает поиски убийц Бойла и вскоре выясняет, что в деле замешаны крупные партии наркотиков, хранящиеся на складе улик самой полиции…

    Автор рипа: Sem-te
    Релиз подготовил:
    Тип релиза: BDRip
    Контейнер: AVI
    Информация о видео: 688x288 (2.39: 1), 23.976 fps, XviD build 73 ~1681 kbps avg, 0.35 bit/pixel
    Информация о звуке: 48 kHz, AC3 Dolby Digital, 2/0 (L, R) ch, ~192 kbps
    Размер скачиваемого торрента: 1498.15 Mb
    MediaInfo

    General
    Complete name : D: Sem-teMcQ.1974.BDRip.1.46.Gb.XviD.АС3.Sem-te.avi
    Format : AVI
    Format/Info : Audio Video Interleave
    File size : 1.46 GiB
    Duration : 1h 51mn
    Overall bit rate : 1 883 Kbps
    Writing application : VirtualDubMod 1.5.10.3 | www.virtualdub-fr.org || (build 2550/release)
    Writing library : VirtualDubMod build 2550/release
    Video
    ID : 0
    Format : MPEG-4 Visual
    Format profile : Advanced Simple@L5
    Format settings, BVOP : 1
    Format settings, QPel : No
    Format settings, GMC : No warppoints
    Format settings, Matrix : Custom
    Codec ID : XVID
    Codec ID/Hint : XviD
    Duration : 1h 51mn
    Bit rate : 1 682 Kbps
    Width : 688 pixels
    Height : 288 pixels
    Display aspect ratio : 2.40: 1
    Frame rate : 23.976 fps
    Color space : YUV
    Chroma subsampling : 4: 2: 0
    Bit depth : 8 bits
    Scan type : Progressive
    Compression mode : Lossy
    Bits/(Pixel*Frame) : 0.354
    Stream size : 1.31 GiB (89%)
    Writing library : XviD 73
    Audio
    ID : 1
    Format : AC-3
    Format/Info : Audio Coding 3
    Mode extension : CM (complete main)
    Format settings, Endianness : Big
    Codec ID : 2000
    Duration : 1h 51mn
    Bit rate mode : Constant
    Bit rate : 192 Kbps
    Channel(s) : 2 channels
    Channel positions : Front: L R
    Sampling rate : 48.0 KHz
    Bit depth : 16 bits
    Compression mode : Lossy
    Stream size : 153 MiB (10%)
    Alignment : Split accross interleaves
    Interleave, duration : 42 ms (1.00 video frame)
    Interleave, preload duration : 500 ms

    Скриншоты




    Онлайн видео МакКью


    Размер скачиваемого торрента: 1.46 GB (1570924544 Bytes)

    МакКью/McQ (1974) BDRip от Sem-te | P
    загрузка...
    Рейтинг →
     (голосов: 1, оценка 3/5, голосовать можно 1 раз )

    Другие торренты по теме:

  • МакКью / McQ (1974) BDRip 1080p от Sem-te | P, L1 скачать торрент бесплатно


    • Комментарии (0):

      Информация

      Информация

        Посетители, находящиеся в группе Гости, не могут оставлять комментарии в данной новости.

        ↓ Меню



        ↓ Опрос

        А Вы добавили сайт в закладки?
        Да
        Не


        Top 10 за неделю (Фильмы)