.
Авторизация | Регистрация
» » Марсианин / The Martian (2015) BDRip 720p от ExKinoRay | Расширенная версия | D скачать торрент бесплатно




    Марсианин / The Martian (2015) BDRip 720p от ExKinoRay | Расширенная версия | D скачать торрент бесплатно

    Опубликовал: Админ | Дата: 18-06-2016, 05:00 | Просмотров: 69



    Детально о кино
    Русское название: Марсианин
    Русское название в мировом прокате: The Martian
    Создали в: 2015
    Категория жанра: Фантастика, приключения
    Главный режиссер: Ридли Скотт

    Актеры
    Мэтт Дэймон, Джессика Честейн, Чиветел Эджиофор, Кристен Уиг, Джефф Дэниелс, Майкл Пенья, Шон Бин, Кейт Мара, Себастьян Стэн, Аксель Хенни, Бенедикт Вонг, Маккензи Дэвис, Дональд Гловер, Ник Мохаммед, Чен Шу, Эдди Ко, Энцо Чиленти, Джонатан Арис, Граффадд Глин, Наоми Скотт

    Сюжет фильма

    Марсианская миссия Арес-3 в процессе работы была вынуждена экстренно покинуть планету из-за надвигающейся песчаной бури. Инженер и биолог Марк Уотни получил повреждение скафандра во время песчаной бури. Сотрудники миссии, посчитав его погибшим, эвакуировались с планеты, оставив Марка одного. Очнувшись, Уотни обнаруживает, что связь с Землёй отсутствует, но при этом полностью функционирует жилой модуль. Главный герой начинает искать способ продержаться на имеющихся запасах еды, витаминов, воды и воздуха ещё 4 года до прилёта следующей миссии Арес-4.

    Снималось в: США
    Киностудия: 20th Century Fox Film Corporation, Genre Films
    Время просмотра: 02: 31: 20
    Перевод текста: Дублированный
    Файл
    Кодек для видео: MPEG-4
    Качество фильма: BDRip 720p
    Информация о видео: 1280x534, 5371 Kbit/s, 23.976 fps
    Информация о звуке:
    Информация о звуке #01: 48 kHz, DTS, 5.1, 768 Kbps | Дублированный | DTS
    Информация о звуке #01: 48 kHz, AC3, 5.1, 448 Kbps | Дублированный | AC3
    Информация о звуке #02: 48 kHz, DTS, 5.1, 1510 kbps | Оригинал | DTS
    Субтитры: Английские
    Релиз подготовил: Автор релиза:

    Примечание
    Расширенные сцены озвучены студией Omskbird records
    MI
    General
    Unique ID : 240161816506476203277784742374420021689 (0xB4AD7BBF804AD19AA9CEB083B79481B9)
    Complete name : F: VideoThe.Martian.2015.EXTENDED.BDRip.720p.ExKinoRay.mkv
    Format : Matroska
    Format version : Version 4/Version 2
    File size : 8.56 GiB
    Duration : 2h 31mn
    Overall bit rate : 8 100 Kbps
    Movie name : The.Martian.2015.EXTENDED.BDRip.720p.ExKinoRay
    Encoded date : UTC 2016-06-17 22: 05: 26
    Writing application : mkvmerge v8.3.0 (;Over the Horizon;) 64bit
    Writing library : libebml v1.3.1 + libmatroska v1.4.2
    Video
    ID : 1
    Format : AVC
    Format/Info : Advanced Video Codec
    Format profile : High@L4.1
    Format settings, CABAC : Yes
    Format settings, ReFrames : 12 frames
    Codec ID : V_MPEG4/ISO/AVC
    Duration : 2h 31mn
    Bit rate : 5 371 Kbps
    Width : 1 280 pixels
    Height : 534 pixels
    Display aspect ratio : 2.40: 1
    Frame rate mode : Constant
    Frame rate : 23.976 (24000/1001) fps
    Color space : YUV
    Chroma subsampling : 4: 2: 0
    Bit depth : 8 bits
    Scan type : Progressive
    Bits/(Pixel*Frame) : 0.328
    Stream size : 5.68 GiB (66%)
    Writing library : x264 core 142 r2431+42 c69a006 tMod 8-bit@all X86_64
    Encoding settings : cabac=1/ref=12/deblock=1: -3: -3/analyse=0x3: 0x133/me=umh/subme=11/psy=1/fade_compensate=0.00/psy_rd=1.05: 1.00/mixed_ref=1/me_range=32/chroma_me=1/trellis=2/8x8dct=1/cqm=0/deadzone=21, 11/fast_pskip=0/chroma_qp_offset=-4/threads=60/lookahead_threads=4/sliced_threads=0/nr=0/decimate=0/interlaced=0/bluray_compat=0/constrained_intra=0/fgo=0/bframes=8/b_pyramid=2/b_adapt=2/b_bias=0/direct=3/weightb=1/open_gop=0/weightp=2/keyint=250/keyint_min=23/scenecut=40/intra_refresh=0/rc_lookahead=60/rc=crf/mbtree=0/crf=16.5000/qcomp=0.60/qpmin=0: 0: 0/qpmax=69: 69: 69/qpstep=4/vbv_maxrate=40000/vbv_bufsize=30000/crf_max=0.0/nal_hrd=none/filler=0/ip_ratio=1.40/pb_ratio=1.30/aq=1: 1.00/aq-sensitivity=10.00/aq-factor=1.00: 1.00: 1.00/aq2=0/aq3=0
    Language : English
    Default : Yes
    Forced : No
    Audio #1
    ID : 2
    Format : DTS
    Format/Info : Digital Theater Systems
    Mode : 16
    Format settings, Endianness : Big
    Codec ID : A_DTS
    Duration : 2h 31mn
    Bit rate mode : Constant
    Bit rate : 768 Kbps
    Channel(s) : 6 channels
    Channel positions : Front: L C R, Side: L R, LFE
    Sampling rate : 48.0 KHz
    Frame rate : 93.750 fps (512 spf)
    Bit depth : 24 bits
    Compression mode : Lossy
    Stream size : 831 MiB (9%)
    Language : Russian
    Default : Yes
    Forced : Yes
    Audio #2
    ID : 3
    Format : AC-3
    Format/Info : Audio Coding 3
    Mode extension : CM (complete main)
    Format settings, Endianness : Big
    Codec ID : A_AC3
    Duration : 2h 31mn
    Bit rate mode : Constant
    Bit rate : 448 Kbps
    Channel(s) : 6 channels
    Channel positions : Front: L C R, Side: L R, LFE
    Sampling rate : 48.0 KHz
    Frame rate : 31.250 fps (1536 spf)
    Compression mode : Lossy
    Stream size : 485 MiB (6%)
    Language : Russian
    Default : No
    Forced : No
    Audio #3
    ID : 4
    Format : DTS
    Format/Info : Digital Theater Systems
    Mode : 16
    Format settings, Endianness : Big
    Codec ID : A_DTS
    Duration : 2h 31mn
    Bit rate mode : Constant
    Bit rate : 1 509 Kbps
    Channel(s) : 6 channels
    Channel positions : Front: L C R, Side: L R, LFE
    Sampling rate : 48.0 KHz
    Frame rate : 93.750 fps (512 spf)
    Bit depth : 24 bits
    Compression mode : Lossy
    Stream size : 1.60 GiB (19%)
    Language : English
    Default : No
    Forced : No
    Text
    ID : 5
    Format : UTF-8
    Codec ID : S_TEXT/UTF8
    Codec ID/Info : UTF-8 Plain Text
    Duration : 2h 31mn
    Bit rate : 50 bps
    Count of elements : 1944
    Stream size : 56.1 KiB (0%)
    Language : English
    Default : No
    Forced : No
    Menu
    00: 00: 00.000 : en: Chapter 01
    00: 03: 22.285 : en: Chapter 03
    00: 10: 15.156 : en: Chapter 05
    00: 15: 24.590 : en: Chapter 07
    00: 18: 25.187 : en: Chapter 09
    00: 21: 58.817 : en: Chapter 11
    00: 24: 52.532 : en: Chapter 13
    00: 29: 17.130 : en: Chapter 15
    00: 32: 01.085 : en: Chapter 17
    00: 34: 45.541 : en: Chapter 19
    00: 40: 08.155 : en: Chapter 21
    00: 42: 48.315 : en: Chapter 23
    00: 47: 50.075 : en: Chapter 25
    00: 51: 12.736 : en: Chapter 27
    00: 58: 03.396 : en: Chapter 29
    01: 01: 41.614 : en: Chapter 31
    01: 04: 24.944 : en: Chapter 33
    01: 08: 54.254 : en: Chapter 35
    01: 11: 54.101 : en: Chapter 37
    01: 16: 33.505 : en: Chapter 39
    01: 22: 05.503 : en: Chapter 41
    01: 26: 19.715 : en: Chapter 43
    01: 37: 47.653 : en: Chapter 45
    01: 44: 36.478 : en: Chapter 47
    01: 50: 38.381 : en: Chapter 49
    01: 53: 22.670 : en: Chapter 51
    01: 59: 17.566 : en: Chapter 53
    02: 03: 51.006 : en: Chapter 55
    02: 07: 32.352 : en: Chapter 57
    02: 14: 24.723 : en: Chapter 59
    02: 20: 48.397 : en: Chapter 61
    02: 23: 11.832 : en: Chapter 63
    02: 31: 20.404 : en: Chapter 64
    Скриншоты


    Онлайн видео Марсианин


    Размер скачиваемого торрента: 8.56 GB (9194102122 Bytes)

    Марсианин/The Martian (2015) BDRip 720p от ExKinoRay | Расширенная версия | D
    загрузка...
    Рейтинг →
     (голосов: 1, оценка 3/5, голосовать можно 1 раз )

    Другие торренты по теме:

  • Мой любимый марсианин / My Favorite Martian (1999) WEB-DLRip торрент скачать бесплатно
  • Мой любимый марсианин / My Favorite Martian (1999) WEB-DL (720p) от HDClub | D торрент скачать бесплатно
  • Марсианин / The Martian (2015) WEBRip 1080p | Трейлер скачать торрент бесплатно
  • Марсианин / The Martian (2015) DCPRip | 4K | Трейлер скачать торрент бесплатно
  • Марсианин / The Martian (2015) WEBRip | Звук с TS скачать торрент бесплатно
  • Марсианин / The Martian (2015) WEB-DL 1080р | Чистый звук скачать торрент бесплатно
  • Марсианин / The Martian (2015) WEB-DLRip от Scarabey | Чистый звук скачать торрент бесплатно
  • Марсианин / The Martian (2015) WEB-DLRip | КПК | Чистый звук скачать торрент бесплатно


    • Комментарии (0):

      Информация

      Информация

        Посетители, находящиеся в группе Гости, не могут оставлять комментарии в данной новости.

        ↓ Меню



        ↓ Опрос

        А Вы добавили сайт в закладки?
        Да
        Не


        Top 10 за неделю (Фильмы)