.
Авторизация | Регистрация
» » Завещание Ленина (2007) DVDRip от New-Team скачать торрент бесплатно




    Завещание Ленина (2007) DVDRip от New-Team скачать торрент бесплатно

    Опубликовал: Админ | Дата: 18-06-2016, 19:27 | Просмотров: 66



    Снималось в: Россия
    Создали в: Эталон-фильм
    Категория жанра: драма
    Создали в: 2007
    Время просмотра: 12 серий ~ по 45 мин.
    Перевод текста: не требуется
    Субтитры: нет
    Оригинальная аудиодорожка: русский
    Главный режиссер: Николай Досталь

    Актеры

    Игорь Класс, Владимир Капустин, Елена Руфанова, Инга Оболдина, Владимир Конкин, Александр Трофимов, Ирина Муравьёва, Марк Наассан, Данила Козловский, Надежда Аникеева, Роман Мадянов, Алиса Хазанова, Тимофей Трибунцев, Михаил Крылов, Сергей Перелыгин, Елена Лядова, Виктор Бегунов, Эдуард Федашко, Николай Мачульский, Максим Гудков, Анна Рудь, Александр Обласов, Феликс Антипов, Александр Строев (II), Александр Яценко, Юрис Горнавс, Александр Коршунов, Дмитрий Мельников, Сергей Ануфриев, Алексей Шевченков, Сергей Кагаков, Дмитрий Тихонов, Сергей Оленберг, Вячеслав Ковалёв, Владимир Устюгов, Михаил Петухов, Валерий Золотухин, Ирина Розанова...
    Полный список актёров
    Описание:
    В основе сюжета - Колымские рассказы Варлама Шаламова
    Автор Колымских рассказов и многих других произведений 17 лет провел в страшных лагерях ГУЛАГа на Колыме. Срок, который получил Варлам Тихонович в 1929 году, был за распространение письма Ленина съезду, в котором тот критикует Сталина. В наше время это письмо называют завещанием Ленина…



    Исходник: 3хDVD9 R5
    Качество фильма видео: DVDRip
    Тип видео видео: AVI
    Информация о видео: 688х384 (16: 9), 25 fps, XviD ~ 1549 kbps avg, 0.235 bit/pixel
    Информация о звуке: 48 kHz, Dolby Digital AC3 5.1, 448 kbps
    Раздача от:
    MediaInfo

    Общее
    Полное имя : Zaveshanie.Lenina.1955.DVDRip_New-team_by_AVP_Studio4.avi
    Формат : AVI
    Формат/Информация : Audio Video Interleave
    Размер файла : 634 Мбайт
    Продолжительность : 44 м.
    Общий поток : 2007 Кбит/сек
    Программа кодирования : VirtualDubMod 1.5.10.3 | www.virtualdub-fr.org || (build 2550/release)
    Библиотека кодирования : VirtualDubMod build 2550/release
    Видео
    Идентификатор : 0
    Формат : MPEG-4 Visual
    Профиль формата : Advanced Simple@L5
    Параметр BVOP формата : 1
    Параметр QPel формата : Нет
    Параметр GMC формата : Без точки перехода
    Параметр матрицы формата : Выборочная
    Идентификатор кодека : XVID
    Идентификатор кодека/Подсказка : XviD
    Продолжительность : 44 м.
    Битрейт : 1549 Кбит/сек
    Ширина : 688 пикселей
    Высота : 384 пикселя
    Соотношение сторон : 16: 9
    Частота кадров : 25, 000 кадров/сек
    Цветовое пространство : YUV
    Субдискретизация насыщенности : 4: 2: 0
    Битовая глубина : 8 бит
    Тип развёртки : Прогрессивная
    Метод сжатия : С потерями
    Бит/(Пиксели*Кадры) : 0.235
    Размер потока : 489 Мбайт (77%)
    Библиотека кодирования : XviD 1.2.1 (UTC 2008-12-04)
    Аудио
    Идентификатор : 1
    Формат : AC-3
    Формат/Информация : Audio Coding 3
    Расширение режима : CM (complete main)
    Параметр Endianness формата : Big
    Идентификатор кодека : 2000
    Продолжительность : 44 м.
    Вид битрейта : Постоянный
    Битрейт : 448 Кбит/сек
    Каналы : 6 каналов
    Расположение каналов : Front: L C R, Side: L R, LFE
    Частота : 48, 0 КГц
    Частота кадров : 31, 250 кадров/сек (1536 spf)
    Метод сжатия : С потерями
    Размер потока : 141 Мбайт (22%)
    Выравнивание : Разделение по промежуткам
    Продолжительность промежутка : 40 мс. (1, 00 видеокадр)
    Время предзагрузки промежутка : 500 мс

    Скриншоты



    Залил: AVPStudio
    Размер скачиваемого торрента: 7.45 GB (8003932160 Bytes)

    Завещание Ленина (2007) DVDRip от New-Team
    загрузка...
    Рейтинг →
     (голосов: 1, оценка 5/5, голосовать можно 1 раз )

    Другие торренты по теме:

  • Завещание Ленина (2007) DVDRip от New-Team скачать торрент бесплатно
  • Завещание Ленина (2007) DVDRip-AVC от New-Team скачать торрент бесплатно


    • Комментарии (0):

      Информация

      Информация

        Посетители, находящиеся в группе Гости, не могут оставлять комментарии в данной новости.

        ↓ Меню



        ↓ Опрос

        А Вы добавили сайт в закладки?
        Да
        Не


        Top 10 за неделю (Фильмы)