.
Авторизация | Регистрация
» » За витриной универмага (1955) DVDRip от New-Team скачать торрент бесплатно




    За витриной универмага (1955) DVDRip от New-Team скачать торрент бесплатно

    Опубликовал: Админ | Дата: 18-06-2016, 19:27 | Просмотров: 136



    Снималось в: СССР
    Создали в: Мосфильм
    Категория жанра: комедия
    Создали в: 1955
    Время просмотра: 01: 28: 33
    Перевод текста: Не требуется
    Субтитры подготовлены: нет
    Оригинальная аудиодорожка: русский
    Главный режиссер: Самсон Самсонов

    Актеры

    Иван Дмитриев, Наталья Медведева, Микаэла Дроздовская, Олег Анофриев, Светлана Дружинина, Анатолий Кузнецов, Георгий Шамшурин, Валентина Данчева, Борис Тенин, Наталья Ткачёва, Михаил Трояновский, Нина Яковлева, Георгий Георгиу...
    Полный список актёров
    Описание:
    Заведующий секцией готового платья Михаил Иванович Крылов, в прошлом майор Советской Армии, вступает в конфликт с директором швейной фабрики Анной Андреевой, к которой имеет весьма аргументированные претензии по поводу пошива продукции. Но раздражение скоро переходит во взаимную симпатию. Анна даже спасает его от больших неприятностей, когда в его секции обнаруживается первая недостача. Тем временем костюмы продолжают таинственным образом исчезать. Когда Крылов перестанет скрывать пропажу, к делу подключится молодежь и заведующий будет реабилитирован.



    Источник: DVD5 R5
    Качество фильма видео: DVDRip
    Тип видео видео: AVI
    Информация о видео: 640x480 (4: 3), 25 fps, XviD ~ 1079 kbps avg, 0.140 bit/pixel
    Информация о звуке: 48 kHz, MP3 2.0, 128 kbps
    Раздача от:
    MediaInfo

    Общее
    Полное имя : Za.vitrinoy.univermaga.1955.DVDRip-745_New-team_by_AVP_Studio.avi
    Формат : AVI
    Формат/Информация : Audio Video Interleave
    Размер файла : 744 Мбайт
    Продолжительность : 1 ч. 28 м.
    Общий поток : 1175 Кбит/сек
    Программа кодирования : VirtualDubMod 1.5.10.3 | www.virtualdub-fr.org || (build 2550/release)
    Библиотека кодирования : VirtualDubMod build 2550/release
    Видео
    Идентификатор : 0
    Формат : MPEG-4 Visual
    Профиль формата : Advanced Simple@L5
    Параметр BVOP формата : 1
    Параметр QPel формата : Нет
    Параметр GMC формата : Без точки перехода
    Параметр матрицы формата : Выборочная
    Идентификатор кодека : XVID
    Идентификатор кодека/Подсказка : XviD
    Продолжительность : 1 ч. 28 м.
    Битрейт : 1037 Кбит/сек
    Ширина : 640 пикселей
    Высота : 480 пикселей
    Соотношение сторон : 4: 3
    Частота кадров : 25, 000 кадров/сек
    Цветовое пространство : YUV
    Субдискретизация насыщенности : 4: 2: 0
    Битовая глубина : 8 бит
    Тип развёртки : Прогрессивная
    Метод сжатия : С потерями
    Бит/(Пиксели*Кадры) : 0.135
    Размер потока : 657 Мбайт (88%)
    Библиотека кодирования : XviD 1.2.1 (UTC 2008-12-04)
    Аудио
    Идентификатор : 1
    Формат : MPEG Audio
    Версия формата : Version 1
    Профиль формата : Layer 3
    Идентификатор кодека : 55
    Идентификатор кодека/Подсказка : MP3
    Продолжительность : 1 ч. 28 м.
    Вид битрейта : Постоянный
    Битрейт : 128 Кбит/сек
    Каналы : 2 канала
    Частота : 48, 0 КГц
    Метод сжатия : С потерями
    Размер потока : 81, 1 Мбайт (11%)
    Выравнивание : Соединение по промежуткам
    Продолжительность промежутка : 40 мс. (1, 00 видеокадр)
    Время предзагрузки промежутка : 504 мс.
    Библиотека кодирования : LAME3.99r
    Залил: AVPStudio

    Онлайн видео За витриной универмага (1955) DVDRip от New


    Размер скачиваемого торрента: 744.19 MB (780339200 Bytes)


    За витриной универмага (1955) DVDRip от New-Team
    загрузка...
    Рейтинг →
     (голосов: 1, оценка 4/5, голосовать можно 1 раз )

    Другие торренты по теме:

  • Юлий Казаков и группа Витрина - Ты и я (1990) FLAC скачать через торрент бесплатно


    • Комментарии (0):

      Информация

      Информация

        Посетители, находящиеся в группе Гости, не могут оставлять комментарии в данной новости.

        ↓ Меню



        ↓ Опрос

        А Вы добавили сайт в закладки?
        Да
        Не


        Top 10 за неделю (Фильмы)