.
Авторизация | Регистрация
Хочешь лучшие торренты? Добавь свой email!
Добавить
» » Ведьма / The VVitch: A New-England Folktale (2015) BDRemux 1080p от ExKinoRay | D, L торрент скачать бесплатно




    Ведьма / The VVitch: A New-England Folktale (2015) BDRemux 1080p от ExKinoRay | D, L торрент скачать бесплатно

    Опубликовал: Админ | Дата: 19-06-2016, 05:00 | Просмотров: 116



    Детально о кино
    Русское название: Ведьма
    Русское название в мировом прокате: The VVitch: A New-England Folktale
    Создали в: 2015
    Категория жанра: Ужасы, детектив
    Главный режиссер: Роберт Эггерс

    Актеры
    Аня Тейлор-Джой, Ралф Айнесон, Кейт Дики, Харви Скримшо, Элли Грэйнджер, Лукас Доусон, Батшеба Гарнетт, Сара Стефенс, Джулиан Ричингс, Вахаб Каудхри

    Сюжет фильма

    Семья колонистов покидает плантацию, чтобы жить на уединенной ферме рядом с лесом в Новой Англии. Но вскоре младший ребёнок, ещё младенец, исчезает.

    Снималось в: США, Великобритания, Канада, Бразилия
    Киностудия: Code Red Productions, Maiden Voyage Pictures, Mott Street Pictures, Parts and Labor
    Время просмотра: 01: 32: 26
    Перевод текста: Дублированный
    Любительский многоголосый (закадровый) | Paradox Omskbird records
    Файл
    Кодек для видео: MPEG-4
    Качество фильма: BDRemux 1080p
    Информация о видео: 1920x1080, 34.5 Мbit/s, 23.976 fps
    Информация о звуке:
    Информация о звуке #01: 48 kHz, AC3, 2.0, 448 Kbps | Дублированный |
    Информация о звуке #02: 48 kHz, DTS-HD MA, 5.1, 3410 Kbps | Любительский многоголосый (закадровый), Paradox Omskbird records |
    Информация о звуке #04: 48 kHz, DTS-HD MA, 5.1, 3412 kbps | Оригинал |
    Субтитры: Русские, английские (srt, SDH)
    Релиз подготовил: Автор релиза:

    MI
    General
    Unique ID : 215701947044357276638954987968892447263 (0xA246AF1340E83081807645C4CF532A1F)
    Complete name : F: VideoThe.VVitch.A.New-England.Folktale.2015.BDREMUX.1080p.ExKinoRay.mkv
    Format : Matroska
    Format version : Version 4/Version 2
    File size : 26.9 GiB
    Duration : 1h 32mn
    Overall bit rate mode : Variable
    Overall bit rate : 41.7 Mbps
    Movie name : The.VVitch: A.New-England.Folktale.2015.BDREMUX.1080p.ExKinoRay
    Encoded date : UTC 2016-06-18 17: 19: 11
    Writing application : mkvmerge v8.3.0 (;Over the Horizon;) 64bit
    Writing library : libebml v1.3.1 + libmatroska v1.4.2
    Video
    ID : 1
    Format : AVC
    Format/Info : Advanced Video Codec
    Format profile : High@L4.1
    Format settings, CABAC : Yes
    Format settings, ReFrames : 4 frames
    Codec ID : V_MPEG4/ISO/AVC
    Duration : 1h 32mn
    Bit rate mode : Variable
    Bit rate : 34.5 Mbps
    Maximum bit rate : 37.0 Mbps
    Width : 1 920 pixels
    Height : 1 080 pixels
    Display aspect ratio : 16: 9
    Frame rate mode : Constant
    Frame rate : 23.976 (24000/1001) fps
    Color space : YUV
    Chroma subsampling : 4: 2: 0
    Bit depth : 8 bits
    Scan type : Progressive
    Bits/(Pixel*Frame) : 0.693
    Stream size : 22.2 GiB (83%)
    Language : English
    Default : Yes
    Forced : No
    Audio #1
    ID : 2
    Format : AC-3
    Format/Info : Audio Coding 3
    Mode extension : CM (complete main)
    Format settings, Endianness : Big
    Codec ID : A_AC3
    Duration : 1h 32mn
    Bit rate mode : Constant
    Bit rate : 448 Kbps
    Channel(s) : 2 channels
    Channel positions : Front: L R
    Sampling rate : 48.0 KHz
    Frame rate : 31.250 fps (1536 spf)
    Compression mode : Lossy
    Stream size : 296 MiB (1%)
    Title : DUB
    Language : Russian
    Default : Yes
    Forced : No
    Audio #2
    ID : 3
    Format : DTS
    Format/Info : Digital Theater Systems
    Format profile : MA/Core
    Mode : 16
    Format settings, Endianness : Big
    Codec ID : A_DTS
    Duration : 1h 32mn
    Bit rate mode : Variable/Constant
    Bit rate : 3 410 Kbps/1 509 Kbps
    Channel(s) : 6 channels
    Channel positions : Front: L C R, Side: L R, LFE
    Sampling rate : 48.0 KHz
    Frame rate : 93.750 fps (512 spf)
    Bit depth : 24 bits
    Compression mode : Lossless/Lossy
    Stream size : 2.20 GiB (8%)
    Title : MVO
    Language : Russian
    Default : No
    Forced : No
    Audio #3
    ID : 4
    Format : DTS
    Format/Info : Digital Theater Systems
    Format profile : MA/Core
    Mode : 16
    Format settings, Endianness : Big
    Codec ID : A_DTS
    Duration : 1h 32mn
    Bit rate mode : Variable/Constant
    Bit rate : 3 412 Kbps/1 509 Kbps
    Channel(s) : 6 channels
    Channel positions : Front: L C R, Side: L R, LFE
    Sampling rate : 48.0 KHz
    Frame rate : 93.750 fps (512 spf)
    Bit depth : 24 bits
    Compression mode : Lossless/Lossy
    Stream size : 2.20 GiB (8%)
    Title : Original
    Language : English
    Default : No
    Forced : No
    Text #1
    ID : 5
    Format : UTF-8
    Codec ID : S_TEXT/UTF8
    Codec ID/Info : UTF-8 Plain Text
    Duration : 1h 25mn
    Bit rate : 59 bps
    Count of elements : 786
    Stream size : 37.0 KiB (0%)
    Language : Russian
    Default : No
    Forced : No
    Text #2
    ID : 6
    Format : UTF-8
    Codec ID : S_TEXT/UTF8
    Codec ID/Info : UTF-8 Plain Text
    Duration : 1h 24mn
    Bit rate : 40 bps
    Count of elements : 814
    Stream size : 25.0 KiB (0%)
    Language : English
    Default : No
    Forced : No
    Text #3
    ID : 7
    Format : UTF-8
    Codec ID : S_TEXT/UTF8
    Codec ID/Info : UTF-8 Plain Text
    Duration : 1h 27mn
    Bit rate : 43 bps
    Count of elements : 953
    Stream size : 27.7 KiB (0%)
    Title : SDH
    Language : English
    Default : No
    Forced : No
    Menu
    00: 00: 00.000 : en: Chapter 01
    00: 04: 44.159 : en: Chapter 02
    00: 13: 12.333 : en: Chapter 03
    00: 18: 51.672 : en: Chapter 04
    00: 26: 40.432 : en: Chapter 05
    00: 29: 47.869 : en: Chapter 06
    00: 37: 11.145 : en: Chapter 07
    00: 42: 09.068 : en: Chapter 08
    00: 48: 23.817 : en: Chapter 09
    00: 53: 23.867 : en: Chapter 10
    01: 00: 36.049 : en: Chapter 11
    01: 04: 13.558 : en: Chapter 12
    01: 10: 27.431 : en: Chapter 13
    01: 13: 55.431 : en: Chapter 14
    01: 20: 42.045 : en: Chapter 15
    01: 25: 14.901 : en: Chapter 16
    Скриншоты


    Онлайн видео Ведьма


    Размер скачиваемого торрента: 26.95 GB (28934988508 Bytes)

    Ведьма/The VVitch: A New-England Folktale (2015) BDRemux 1080p от ExKinoRay | D, L
    загрузка...
    Рейтинг →
     (голосов: 1, оценка 4/5, голосовать можно 1 раз )

    Другие торренты по теме:

  • Ведьма / The VVitch: A New-England Folktale (2015) WEBRip от koshera | L2
  • Ведьма / The VVitch: A New-England Folktale (2015)
  • Ведьма / The VVitch: A New-England Folktale (2015) HDRip от Scarabey | L
  • Ведьма / The VVitch: A New-England Folktale (2015) BDRip 1080p от ExKinoRay | L
  • Ведьма / The VVitch: A New-England Folktale (2015) HDRip-AVC | L
  • Ведьма / The VVitch: A New-England Folktale (2015) BDRip 720p от ExKinoRay | D, L
  • Ведьма / The VVitch: A New-England Folktale (2015) HDRip- AVC | D
  • Ведьма / The VVitch: A New-England Folktale (2016) HDRip от Generalfilm | КПК | Лицензия


    • Комментарии (0):

      Информация

      Информация

        Посетители, находящиеся в группе Гости, не могут оставлять комментарии в данной новости.

        ↓ Меню



        ↓ Опрос

        А Вы добавили сайт в закладки?
        Да
        Не


        Top 10 за месяц (Фильмы)