.
Авторизация | Регистрация
Хочешь лучшие торренты? Добавь свой email!
Добавить
» » Ценный груз / Precious Cargo (2016) BDRemux 1080p от ExKinoRay | L торрент скачать бесплатно




    Ценный груз / Precious Cargo (2016) BDRemux 1080p от ExKinoRay | L торрент скачать бесплатно

    Опубликовал: Админ | Дата: 19-06-2016, 05:00 | Просмотров: 95



    Детально о кино
    Русское название: Ценный груз
    Русское название в мировом прокате: Precious Cargo
    Создали в: 2016
    Категория жанра: Боевик, триллер, драма, криминал
    Главный режиссер: Макс Адамс

    Актеры
    Брюс Уиллис, Марк-Пол Госселаар, Клер Форлани, Джон Бразертон, Дженна Б. Келли, Николас М. Лоб, Лидия Халл, Дэниэл Бернхард, Эшли Кирк, Тайлер Джон Олсон

    Сюжет фильма

    Профессиональная воровка Карен (Форлани) всегда ответственно подходит к каждому новому делу, но все на свете невозможно предугадать, и в этот раз ее план не сработал. А все потому, что она решила кинуть своего покровителя, жестокого криминального босса Эдди (Уиллис). За непослушание и обман, он требует всю долю, иначе верная смерть. Теперь ей придется выполнить задание для Эдди, чтобы расплатится за содеянное. Для этого она обращается к своему бывшему бойфренду, который должен помочь совершить ограбление грузовика перевозящего драгоценности. Это очень опасная миссия, в таком деле не должно быть не единой осечки, но всю ли правду рассказала Карен своей новой команде? Знают ли они в какую игру они ввязываются?

    Снималось в: Канада
    Киностудия: Emmett Furla Oasis Films (EFO Films), Herrick Entertainment, Mann Made Films
    Время просмотра: 01: 29: 56
    Перевод текста: Любительский многоголосый (закадровый)
    Файл
    Кодек для видео: MPEG-4
    Качество фильма: BDRemux 1080p
    Информация о видео: 1920x1080, 34.7 Mbit/s, 23.976 fps
    Информация о звуке:
    Информация о звуке #01: 48 kHz, AC3, 5.1, 640 Kbps | Любительский многоголосый (закадровый) | AC3
    Информация о звуке #02: 48 kHz, DTS-HD MA, 5.1, 3840 kbps | Оригинал | DTS-HD MA
    Субтитры: Английские
    Релиз подготовил: Автор релиза:

    MI
    General
    Unique ID : 178220100844558304852348425016218652235 (0x8613F1614B081A7C8AC97F910F628E4B)
    Complete name : F: VideoPrecious.Cargo.2016.BDREMUX.1080p.ExKinoRay.mkv
    Format : Matroska
    Format version : Version 4/Version 2
    File size : 24.7 GiB
    Duration : 1h 29mn
    Overall bit rate mode : Variable
    Overall bit rate : 39.3 Mbps
    Movie name : Precious.Cargo.2016.BDREMUX.1080p.ExKinoRay
    Encoded date : UTC 2016-06-18 17: 45: 43
    Writing application : mkvmerge v8.3.0 (;Over the Horizon;) 64bit
    Writing library : libebml v1.3.1 + libmatroska v1.4.2
    Video
    ID : 1
    Format : AVC
    Format/Info : Advanced Video Codec
    Format profile : High@L4.1
    Format settings, CABAC : Yes
    Format settings, ReFrames : 4 frames
    Codec ID : V_MPEG4/ISO/AVC
    Duration : 1h 29mn
    Bit rate mode : Variable
    Bit rate : 34.7 Mbps
    Maximum bit rate : 37.0 Mbps
    Width : 1 920 pixels
    Height : 1 080 pixels
    Display aspect ratio : 16: 9
    Frame rate mode : Constant
    Frame rate : 23.976 (24000/1001) fps
    Color space : YUV
    Chroma subsampling : 4: 2: 0
    Bit depth : 8 bits
    Scan type : Progressive
    Bits/(Pixel*Frame) : 0.698
    Stream size : 21.8 GiB (88%)
    Title : Precious.Cargo.2016.BDREMUX.1080p.ExKinoRay.***селезень***
    Language : English
    Default : Yes
    Forced : No
    Audio #1
    ID : 2
    Format : AC-3
    Format/Info : Audio Coding 3
    Mode extension : CM (complete main)
    Format settings, Endianness : Big
    Codec ID : A_AC3
    Duration : 1h 29mn
    Bit rate mode : Constant
    Bit rate : 640 Kbps
    Channel(s) : 6 channels
    Channel positions : Front: L C R, Side: L R, LFE
    Sampling rate : 48.0 KHz
    Frame rate : 31.250 fps (1536 spf)
    Compression mode : Lossy
    Stream size : 412 MiB (2%)
    Title : MVO
    Language : Russian
    Default : Yes
    Forced : No
    Audio #2
    ID : 3
    Format : DTS
    Format/Info : Digital Theater Systems
    Format profile : MA/Core
    Mode : 16
    Format settings, Endianness : Big
    Codec ID : A_DTS
    Duration : 1h 29mn
    Bit rate mode : Variable/Constant
    Bit rate : 3 840 Kbps/1 509 Kbps
    Channel(s) : 6 channels
    Channel positions : Front: L C R, Side: L R, LFE
    Sampling rate : 48.0 KHz
    Frame rate : 93.750 fps (512 spf)
    Bit depth : 24 bits
    Compression mode : Lossless/Lossy
    Stream size : 2.45 GiB (10%)
    Title : Original
    Language : English
    Default : No
    Forced : No
    Text #1
    ID : 4
    Format : UTF-8
    Codec ID : S_TEXT/UTF8
    Codec ID/Info : UTF-8 Plain Text
    Duration : 1h 28mn
    Bit rate : 60 bps
    Count of elements : 1034
    Stream size : 39.3 KiB (0%)
    Language : English
    Default : No
    Forced : No
    Text #2
    ID : 5
    Format : UTF-8
    Codec ID : S_TEXT/UTF8
    Codec ID/Info : UTF-8 Plain Text
    Duration : 1h 28mn
    Bit rate : 64 bps
    Count of elements : 1118
    Stream size : 41.8 KiB (0%)
    Title : SDH
    Language : English
    Default : No
    Forced : No
    Menu
    00: 00: 00.000 : en: 00: 00: 00.000
    00: 08: 58.621 : en: 00: 08: 58.621
    00: 12: 51.938 : en: 00: 12: 51.938
    00: 16: 55.848 : en: 00: 16: 55.848
    00: 25: 43.208 : en: 00: 25: 43.208
    00: 32: 43.128 : en: 00: 32: 43.128
    00: 36: 33.900 : en: 00: 36: 33.900
    00: 42: 13.197 : en: 00: 42: 13.197
    00: 46: 02.551 : en: 00: 46: 02.551
    00: 52: 34.360 : en: 00: 52: 34.360
    00: 58: 47.107 : en: 00: 58: 47.107
    01: 02: 41.466 : en: 01: 02: 41.466
    01: 06: 36.576 : en: 01: 06: 36.576
    01: 08: 36.696 : en: 01: 08: 36.696
    01: 12: 46.904 : en: 01: 12: 46.904
    01: 21: 35.057 : en: 01: 21: 35.057
    Скриншоты


    Онлайн видео Ценный груз


    Размер скачиваемого торрента: 24.67 GB (26490557194 Bytes)

    Ценный груз/Precious Cargo (2016) BDRemux 1080p от ExKinoRay | L
    загрузка...
    Рейтинг →
     (голосов: 1, оценка 4/5, голосовать можно 1 раз )

    Другие торренты по теме:

  • Ценный груз / Cargo (2013) HD 720p
  • Ценный груз / Precious Cargo (2016) WEB-DLRip | L
  • Ценный груз / Precious Cargo (2016) WEB-DL 720p | L
  • Ценный груз / Precious Cargo (2016) WEB-DLRip-AVC | L
  • Ценный груз / Precious Cargo / 2016 / ЛМ / WEB-DLRip
  • Ценный груз / Precious Cargo / 2016 / ЛМ / BDRip (1080p)
  • Ценный груз / Precious Cargo (2016) BDRip от MegaPeer | iTunes


    • Комментарии (0):

      Информация

      Информация

        Посетители, находящиеся в группе Гости, не могут оставлять комментарии в данной новости.

        ↓ Меню



        ↓ Опрос

        А Вы добавили сайт в закладки?
        Да
        Не


        Top 10 за месяц (Фильмы)