.
Авторизация | Регистрация
Хочешь лучшие торренты? Добавь свой email!
Добавить
» » Судьба барабанщика (1955) DVDRip от New-Team торрент скачать бесплатно




    Судьба барабанщика (1955) DVDRip от New-Team торрент скачать бесплатно

    Опубликовал: Админ | Дата: 20-06-2016, 05:00 | Просмотров: 81



    Снималось в: СССР
    Создали в: Киностудия им. М.Горького
    Категория жанра: драма, приключения
    Создали в: 1955
    Время просмотра: 01: 25: 03
    Перевод текста: Не требуется
    Субтитры подготовлены: нет
    Оригинальная аудиодорожка: русский
    Главный режиссер: Виктор Эйсымонт

    Актеры

    Даниил Сагал, Сережа Ясинский, Алла Ларионова, Андрей Абрикосов, Виктор Хохряков, Клавдия Половикова, Александр Лебедев, Василий Краснощеков, Леонид Пирогов, Николай Тимофеев, Борис Бурляев, Валя Рогачева...
    Полный список актёров
    Описание:
    Кристальный коммунист Аркадий Петрович Гайдар позволил себе написать Судьбу барабанщика — говоря словами Достоевского, книгу далеко не безобидную. Писалась она в 1937-38 годах и рассказывала о сыне заключенного — в прошлом командира Красной Армии, ныне отбывающего срок за растрату. На первый взгляд это — повесть о патриотизме и бдительности. На взгляд внимательный и пристрастный — документ тревожного и трагичного времени.
    Просоветского и милитаризованного Гайдара не принято хвалить. Но факт остается фактом: Гайдар — блистательный стилист. Атмосфера и ритм его прозы удивительны. А жизнь, товарищи, была совсем хорошая! — восклицает он в Голубой чашке. Перечитайте Судьбу барабанщика, она пронизана тревогой, смятенностью. Хорошая жизнь здесь становится уязвимой, зыбкой, вплоть до того, что порою кажется видением, сном. Реален страх, реальна зловещая тень, отбрасываемая на хорошую жизнь неким безымянным злом. Теперь-то мы знаем его имена: террор, ГУЛАГ. Лояльный Гайдар, естественно, и не мыслил называть все своими именами, но дыхание этого ада описал с удивительной достоверностью.
    Превращая большую повесть в сценарий полуторачасового фильма, Гайдар, невольно освобождаясь от описаний и авторских отступлений, оставил лишь магистральную сюжетную линию. В результате произведение потеряло то, что составляло ценность и своеобразие литературного первоисточника. Судьбу барабанщика Гайдар своею собственной рукой превратил в незамысловатый сюжет о шпионах, напрочь лишенный загадки и обаяния повести с ее тревожным двоением смыслов. Реальность в фильме не просто перестает слоиться и зыбиться, как это было в книге, но, более того, перестает быть реальностью, становится одним из распространенных мифов сталинской эпохи — о врагах и диверсантах.



    Источник: DVD5 R5
    Качество фильма видео: DVDRip
    Тип видео видео: AVI
    Информация о видео: 704x528 (4: 3), 25 fps, XviD ~ 1627 kbps avg, 0.175 bit/pixel
    Информация о звуке: 48 kHz, Dolby Digital AC3 2.0, 192 kbps
    Раздача от:
    MediaInfo

    Общее
    Полное имя : Sudba.darabanshika.1955.DVDRip_New-team_by_AVP_Studio.avi
    Формат : AVI
    Формат/Информация : Audio Video Interleave
    Размер файла : 1, 09 Гбайт
    Продолжительность : 1 ч. 25 м.
    Общий поток : 1829 Кбит/сек
    Программа кодирования : VirtualDubMod 1.5.10.3 | www.virtualdub-fr.org || (build 2550/release)
    Библиотека кодирования : VirtualDubMod build 2550/release
    Видео
    Идентификатор : 0
    Формат : MPEG-4 Visual
    Профиль формата : Advanced Simple@L5
    Параметр BVOP формата : 1
    Параметр QPel формата : Нет
    Параметр GMC формата : Без точки перехода
    Параметр матрицы формата : Выборочная
    Идентификатор кодека : XVID
    Идентификатор кодека/Подсказка : XviD
    Продолжительность : 1 ч. 25 м.
    Битрейт : 1627 Кбит/сек
    Ширина : 704 пикселя
    Высота : 528 пикселей
    Соотношение сторон : 4: 3
    Частота кадров : 25, 000 кадров/сек
    Цветовое пространство : YUV
    Субдискретизация насыщенности : 4: 2: 0
    Битовая глубина : 8 бит
    Тип развёртки : Прогрессивная
    Метод сжатия : С потерями
    Бит/(Пиксели*Кадры) : 0.175
    Размер потока : 990 Мбайт (89%)
    Библиотека кодирования : XviD 1.2.1 (UTC 2008-12-04)
    Аудио
    Идентификатор : 1
    Формат : AC-3
    Формат/Информация : Audio Coding 3
    Расширение режима : CM (complete main)
    Параметр Endianness формата : Big
    Идентификатор кодека : 2000
    Продолжительность : 1 ч. 25 м.
    Вид битрейта : Постоянный
    Битрейт : 192 Кбит/сек
    Каналы : 2 канала
    Расположение каналов : Front: L R
    Частота : 48, 0 КГц
    Частота кадров : 31, 250 кадров/сек (1536 spf)
    Метод сжатия : С потерями
    Размер потока : 117 Мбайт (10%)
    Выравнивание : Разделение по промежуткам
    Продолжительность промежутка : 40 мс. (1, 00 видеокадр)
    Время предзагрузки промежутка : 500 мс

    Скриншоты



    Залил: AVPStudio

    Онлайн видео Судьба барабанщика (1955) DVDRip от New


    Размер скачиваемого торрента: 1.09 GB (1166569472 Bytes)

    Судьба барабанщика (1955) DVDRip от New-Team
    загрузка...
    Рейтинг →
     (голосов: 1, оценка 3/5, голосовать можно 1 раз )

    Другие торренты по теме:

  • 17 лет / Семнадцать лет / Судьба барабанщика / 17 anni / Age 17 (2013) DVDRip-AVC | L1


    • Комментарии (0):

      Информация

      Информация

        Посетители, находящиеся в группе Гости, не могут оставлять комментарии в данной новости.

        ↓ Меню



        ↓ Опрос

        А Вы добавили сайт в закладки?
        Да
        Не


        Top 10 за месяц (Фильмы)