.
Авторизация | Регистрация
» » МакКью / McQ (1974) BDRip 1080p от Sem-te | P, L1 скачать торрент бесплатно




    МакКью / McQ (1974) BDRip 1080p от Sem-te | P, L1 скачать торрент бесплатно

    Опубликовал: Админ | Дата: 20-06-2016, 05:00 | Просмотров: 24



    Снималось в: США
    Категория жанра: Боевик, драма, криминал
    Создали в: 1974
    Время просмотра: 01: 51: 12
    Перевод текста: Профессиональный (многоголосый закадровый) ТВ Центр
    Перевод текста 2: Одноголосый закадровый
    Субтитры подготовлены: русские, английский
    Оригинальная аудиодорожка: английский
    Главный режиссер: Джон Стёрджес/John Sturges

    Актеры
    Джон Уэйн, Эдди Альберт, Дайана Малдур, Коллин Дьюхёрст, Клу Гулагер, Дэвид Хаддлстон, Джеймс Уоткинс, Аль Леттьери, Джули Адамс, Роджер Э. Мосли
    Описание: Лейтенант полиции Лон Маккью с огорчением узнает об убийстве своего друга и напарника Стэна Бойла. Маккью уверен, что за этим преступлением стоит самый крупный наркоторговец Сан-Франциско Мануэль Сантьяго, но у него нет улик для его ареста. Вместо этого Маккью избивает Сантьяго, за что его увольняют из полиции. Маккью все равно частным образом продолжает поиски убийц Бойла и вскоре выясняет, что в деле замешаны крупные партии наркотиков, хранящиеся на складе улик самой полиции…

    Тип релиза: BDRip 1080p
    Контейнер: МKV
    Информация о видео: MPEG-4 AVC, 15800 kbps avg, 1920x800, High@L4.1
    Информация о звуке 1: русский, AC3, 192 kbps, 2 ch, 48 kHz профессиональный многоголосый, ТВЦ
    Информация о звуке 2: русский, AC3, 192 kbps, 2 ch, 48 kHz одноголосый закадровый, Jack Action
    Информация о звуке 3: английский, DTS, 1509 kbps, 2 ch, 48 kHz оригинал
    MediaInfo

    Общее
    Уникальный идентификатор : 178995197012766689382010081304410437052 (0x86A9389254CE3834A5E4DAA86A19B5BC)
    Полное имя : D: VideoMcQ.1974.BDRip.1080p.mkv
    Формат : Matroska
    Версия формата : Version 4/Version 2
    Размер файла : 13, 8 Гбайт
    Продолжительность : 1 ч. 51 м.
    Общий поток : 17, 7 Мбит/сек
    Дата кодирования : UTC 2016-06-16 03: 21: 30
    Программа кодирования : mkvmerge v8.2.0 (;World of Adventure;) 64bit
    Библиотека кодирования : libebml v1.3.1 + libmatroska v1.4.2
    Видео
    Идентификатор : 1
    Формат : AVC
    Формат/Информация : Advanced Video Codec
    Профиль формата : High@L4.1
    Параметр CABAC формата : Да
    Параметр ReFrames формата : 4 кадра
    Идентификатор кодека : V_MPEG4/ISO/AVC
    Продолжительность : 1 ч. 51 м.
    Битрейт : 15, 8 Мбит/сек
    Ширина : 1920 пикселей
    Высота : 800 пикселей
    Соотношение сторон : 2, 40: 1
    Режим частоты кадров : Постоянный
    Частота кадров : 23, 976 (24000/1001) кадра/сек
    Цветовое пространство : YUV
    Субдискретизация насыщенности : 4: 2: 0
    Битовая глубина : 8 бит
    Тип развёртки : Прогрессивная
    Бит/(Пиксели*Кадры) : 0.429
    Размер потока : 12, 3 Гбайт (89%)
    Библиотека кодирования : x264 core 146 r2538 121396c
    Настройки программы : cabac=1/ref=4/deblock=1: -3: -3/analyse=0x3: 0x113/me=umh/subme=10/psy=1/psy_rd=1.00: 0.15/mixed_ref=1/me_range=32/chroma_me=1/trellis=2/8x8dct=1/cqm=0/deadzone=21, 11/fast_pskip=1/chroma_qp_offset=-3/threads=6/lookahead_threads=1/sliced_threads=0/nr=0/decimate=1/interlaced=0/bluray_compat=0/constrained_intra=0/bframes=12/b_pyramid=2/b_adapt=2/b_bias=0/direct=1/weightb=1/open_gop=0/weightp=2/keyint=230/keyint_min=23/scenecut=40/intra_refresh=0/rc_lookahead=40/rc=crf/mbtree=0/crf=18.5/qcomp=0.60/qpmin=0/qpmax=69/qpstep=4/vbv_maxrate=40000/vbv_bufsize=50000/crf_max=0.0/nal_hrd=none/filler=0/ip_ratio=1.40/pb_ratio=1.30/aq=1: 1.00
    Язык : English
    Default : Да
    Forced : Нет
    Аудио #1
    Идентификатор : 2
    Формат : AC-3
    Формат/Информация : Audio Coding 3
    Расширение режима : CM (complete main)
    Параметр Endianness формата : Big
    Идентификатор кодека : A_AC3
    Продолжительность : 1 ч. 51 м.
    Вид битрейта : Постоянный
    Битрейт : 192 Кбит/сек
    Каналы : 2 канала
    Расположение каналов : Front: L R
    Частота : 48, 0 КГц
    Частота кадров : 31, 250 кадров/сек (1536 spf)
    Метод сжатия : С потерями
    Размер потока : 153 Мбайт (1%)
    Заголовок : MVO (ТВЦ)
    Язык : Russian
    Default : Да
    Forced : Нет
    Аудио #2
    Идентификатор : 3
    Формат : AC-3
    Формат/Информация : Audio Coding 3
    Расширение режима : CM (complete main)
    Параметр Endianness формата : Big
    Идентификатор кодека : A_AC3
    Продолжительность : 1 ч. 51 м.
    Вид битрейта : Постоянный
    Битрейт : 192 Кбит/сек
    Каналы : 2 канала
    Расположение каналов : Front: L R
    Частота : 48, 0 КГц
    Частота кадров : 31, 250 кадров/сек (1536 spf)
    Метод сжатия : С потерями
    Размер потока : 153 Мбайт (1%)
    Заголовок : одноголосый закадровый, Jack Action
    Язык : Russian
    Default : Нет
    Forced : Нет
    Аудио #3
    Идентификатор : 4
    Формат : DTS
    Формат/Информация : Digital Theater Systems
    Режим : 16
    Параметр Endianness формата : Big
    Идентификатор кодека : A_DTS
    Продолжительность : 1 ч. 51 м.
    Вид битрейта : Постоянный
    Битрейт : 1509 Кбит/сек
    Каналы : 2 канала
    Расположение каналов : Front: L R
    Частота : 48, 0 КГц
    Частота кадров : 93, 750 кадра/сек (512 spf)
    Битовая глубина : 24 бит
    Метод сжатия : С потерями
    Размер потока : 1, 17 Гбайт (9%)
    Заголовок : Original
    Язык : English
    Default : Нет
    Forced : Нет
    Текст #1
    Идентификатор : 5
    Формат : UTF-8
    Идентификатор кодека : S_TEXT/UTF8
    Идентификатор кодека/Информация : UTF-8 Plain Text
    Продолжительность : 1 ч. 43 м.
    Битрейт : 72 бит/сек
    Count of elements : 1009
    Размер потока : 55, 4 Кбайт (0%)
    Заголовок : русский
    Язык : Russian
    Default : Нет
    Forced : Нет
    Текст #2
    Идентификатор : 6
    Формат : UTF-8
    Идентификатор кодека : S_TEXT/UTF8
    Идентификатор кодека/Информация : UTF-8 Plain Text
    Продолжительность : 1 ч. 50 м.
    Битрейт : 44 бит/сек
    Count of elements : 1078
    Размер потока : 36, 1 Кбайт (0%)
    Заголовок : английский (для слабослышащих)
    Язык : English
    Default : Нет
    Forced : Нет

    Скриншоты




    Онлайн видео МакКью


    Размер скачиваемого торрента: 13.76 GB (14772170002 Bytes)

    МакКью/McQ (1974) BDRip 1080p от Sem-te | P, L1
    загрузка...
    Рейтинг →
     (голосов: 1, оценка 5/5, голосовать можно 1 раз )

    Другие торренты по теме:

  • МакКью / McQ (1974) BDRip от Sem-te | P скачать торрент бесплатно


    • Комментарии (0):

      Информация

      Информация

        Посетители, находящиеся в группе Гости, не могут оставлять комментарии в данной новости.

        ↓ Меню



        ↓ Опрос

        А Вы добавили сайт в закладки?
        Да
        Не


        Top 10 за неделю (Фильмы)