.
Авторизация | Регистрация
» » Сценарий / Opus (2011) HDTVRip 720p | P скачать торрент бесплатно




    Сценарий / Opus (2011) HDTVRip 720p | P скачать торрент бесплатно

    Опубликовал: Админ | Дата: 20-06-2016, 05:00 | Просмотров: 40



    Детально о кино
    Русское название: Сценарий
    Русское название в мировом прокате: Opus
    Создали в: 2011
    Категория жанра: триллер, драма
    Главный режиссер: Майка Левин

    Актеры
    Кандиз Мелонакос, Демаркес Доган, Кэролин Джания, Дилан Мур, Ариэль Рамос, Брайан Р. Норрис, Михаил Робертс, Нэйт Шольц

    Сюжет фильма

    Семь человек, молодые парни и девушки, приезжают в дом посреди пустыни, чтобы принять участие в съемках фильма ужасов. Им неизвестен сценарий, дом пуст: никакого оборудования и съемочной команды. Вскоре они узнают, что находятся на съемочной площадке, а снимает их режиссер-психопат, и по его сценарию им всем предстоит быть разрубленными на куски.

    Снималось в: США
    Киностудия: Movie Magic Media Productions
    Время просмотра: 01: 23: 39
    Перевод текста: Профессиональный многоголосный, закадровый НТВ+
    Файл
    Кодек для видео: H.264
    Качество фильма: HDTVRip 720p
    Информация о видео: AVC, 1280x548 (2.35: 1), 25 fps ~ 2550 Kbps
    Информация о звуке: AC3, 48 KHz 2 ch ~ 448 Kb/s
    Субтитры: отсутствуют
    MI:

    Общее
    Уникальный идентификатор : 232539759769283238073205427752546257265 (0xAEF1875643799C3EA8AB725B30CAC971)
    Полное имя : Q: TorFScenarij.2011.x264.HDTVRip(720p).MediaClub.mkv
    Формат : Matroska
    Версия формата : Version 2
    Размер файла : 1, 75 Гбайт
    Продолжительность : 1 ч. 23 м.
    Общий поток : 2999 Кбит/сек
    Дата кодирования : UTC 2013-07-18 03: 18: 51
    Программа кодирования : mkvmerge v5.8.0 (;No Sleep/Pillow;) built on Sep 2 2012 15: 37: 04
    Библиотека кодирования : libebml v1.2.3 + libmatroska v1.3.0
    Видео
    Идентификатор : 1
    Формат : AVC
    Формат/Информация : Advanced Video Codec
    Профиль формата : High@L4.1
    Параметр CABAC формата : Да
    Параметр ReFrames формата : 9 кадров
    Идентификатор кодека : V_MPEG4/ISO/AVC
    Продолжительность : 1 ч. 23 м.
    Битрейт : 2550 Кбит/сек
    Ширина : 1280 пикселей
    Высота : 548 пикселей
    Соотношение сторон : 2, 35: 1
    Частота кадров : 25, 000 кадров/сек
    Цветовое пространство : YUV
    Субдискретизация насыщенности : 4: 2: 0
    Битовая глубина : 8 бит
    Тип развёртки : Прогрессивная
    Бит/(Пиксели*Кадры) : 0.145
    Размер потока : 1, 46 Гбайт (83%)
    Библиотека кодирования : x264 core 125 r2208 d9d2288
    Настройки программы : cabac=1/ref=9/deblock=1: -2: -2/analyse=0x3: 0x133/me=umh/subme=10/psy=1/psy_rd=1.00: 0.15/mixed_ref=1/me_range=32/chroma_me=1/trellis=2/8x8dct=1/cqm=0/deadzone=21, 11/fast_pskip=0/chroma_qp_offset=-3/threads=6/lookahead_threads=1/sliced_threads=0/nr=0/decimate=0/interlaced=0/bluray_compat=0/constrained_intra=0/bframes=8/b_pyramid=2/b_adapt=2/b_bias=0/direct=3/weightb=1/open_gop=0/weightp=2/keyint=250/keyint_min=25/scenecut=40/intra_refresh=0/rc=2pass/mbtree=0/bitrate=2550/ratetol=1.0/qcomp=0.60/qpmin=0/qpmax=69/qpstep=4/cplxblur=20.0/qblur=0.5/ip_ratio=1.40/pb_ratio=1.30/aq=1: 0.80
    Default : Да
    Forced : Нет
    Аудио
    Идентификатор : 2
    Формат : AC-3
    Формат/Информация : Audio Coding 3
    Расширение режима : CM (complete main)
    Идентификатор кодека : A_AC3
    Продолжительность : 1 ч. 23 м.
    Вид битрейта : Постоянный
    Битрейт : 448 Кбит/сек
    Каналы : 2 канала
    Расположение каналов : Front: L R
    Частота : 48, 0 КГц
    Битовая глубина : 16 бит
    Метод сжатия : С потерями
    Размер потока : 268 Мбайт (15%)
    Default : Да
    Forced : Нет

    Скриншоты

    Релиз подготовил:

    Онлайн видео Сценарий


    Размер скачиваемого торрента: 1.75 GB (1881474403 Bytes)

    Сценарий/Opus (2011) HDTVRip 720p | P
    загрузка...
    Рейтинг →
     (голосов: 1, оценка 5/5, голосовать можно 1 раз )

    Другие торренты по теме:

  • Сценарий / Opus (2011) SATRip от RG MixTorrent | P торрент скачать бесплатно
  • Сценарий / Opus (2011) HDTVRip 720p от MediaClub | P торрент скачать бесплатно


    • Комментарии (0):

      Информация

      Информация

        Посетители, находящиеся в группе Гости, не могут оставлять комментарии в данной новости.

        ↓ Меню



        ↓ Опрос

        А Вы добавили сайт в закладки?
        Да
        Не


        Top 10 за неделю (Фильмы)