.
Авторизация | Регистрация
Хочешь лучшие торренты? Добавь свой email!
Добавить
» » Белоснежка и Охотник 2 / The Huntsman: Winters War (2016) WEB-DLRip-AVC от Scarabey | iTunes торрент скачать бесплатно




    Белоснежка и Охотник 2 / The Huntsman: Winters War (2016) WEB-DLRip-AVC от Scarabey | iTunes торрент скачать бесплатно

    Опубликовал: Админ | Дата: 20-06-2016, 05:00 | Просмотров: 41



    Создали в: 2016
    Снималось в: США
    Категория жанра: фэнтези, боевик, драма, приключения
    Время просмотра:
    Перевод текста: Професиональный (полное дублирование) iTunes
    Субтитры подготовлены: нет
    Главный режиссер: Седрик Николя-Троян/Cedric Nicolas-Troyan

    Актеры
    Крис Хемсворт, Шарлиз Терон, Джессика Честейн, Эмили Блант, Ник Фрост, Роб Брайдон, Шеридан Смит, Александра Роуч, Сопе Дирису, Сэм Хэзелдайн

    Описание фильма
    Когда любовь уходит, сердце прекрасной девы обращается в лед. И даже сотни королевств не смогут сдержать поступь ее несметного воинства. Лишь Охотник не ведает страха. Сквозь проклятый лес он идет навстречу своей судьбе.
    Качество фильма видео: WEB-DLRip-AVC
    Тип видео видео: MKV
    Информация о видео: 1024х426, 23.976 fps, AVC ~2334 kbps avg
    Информация о звуке: 48 kHz, AC3 Dolby Digital, 3/2 (L, C, R, l, r) + LFE ch, ~384 kbps
    Релиз подготовил:
    АНОНСЫ МОИХ РАЗДАЧ!


    Скриншоты

    МедиаИнфо

    Белоснежка и охотникBelosnejka_i_ohotnik_2_2016__AVC_WEB-DLRip_scarabey.org.mkv
    Format : Matroska
    Format version : Version 2
    File size : 2.16 GiB
    Duration : 1h 53mn
    Overall bit rate : 2 719 Kbps
    Encoded date : UTC 2016-06-17 13: 31: 48
    Writing application : mkvmerge v6.1.0 (;Old Devil;) built on Mar 4 2013 09: 10: 42
    Writing library : libebml v1.3.0 + libmatroska v1.4.0
    Video
    ID : 1
    Format : AVC
    Format/Info : Advanced Video Codec
    Format profile : High@L4.1
    Format settings, CABAC : Yes
    Format settings, ReFrames : 10 frames
    Codec ID : V_MPEG4/ISO/AVC
    Duration : 1h 53mn
    Bit rate : 2 334 Kbps
    Width : 1 024 pixels
    Height : 426 pixels
    Display aspect ratio : 2.35: 1
    Original display aspect ratio : 2.35: 1
    Frame rate mode : Constant
    Frame rate : 23.976 fps
    Color space : YUV
    Chroma subsampling : 4: 2: 0
    Bit depth : 8 bits
    Scan type : Progressive
    Bits/(Pixel*Frame) : 0.223
    Stream size : 1.82 GiB (84%)
    Writing library : x264 core 148 r2597 e86f3a1
    Encoding settings : cabac=1/ref=10/deblock=1: -3: -2/analyse=0x3: 0x113/me=umh/subme=10/psy=1/psy_rd=1.00: 0.00/mixed_ref=1/me_range=32/chroma_me=1/trellis=2/8x8dct=1/cqm=0/deadzone=21, 11/fast_pskip=1/chroma_qp_offset=-2/threads=12/lookahead_threads=2/sliced_threads=0/nr=0/decimate=0/interlaced=0/bluray_compat=0/constrained_intra=0/bframes=8/b_pyramid=2/b_adapt=2/b_bias=0/direct=3/weightb=1/open_gop=0/weightp=2/keyint=240/keyint_min=24/scenecut=40/intra_refresh=0/rc_lookahead=40/rc=2pass/mbtree=1/bitrate=2334/ratetol=1.0/qcomp=0.60/qpmin=0/qpmax=69/qpstep=4/cplxblur=20.0/qblur=0.5/ip_ratio=1.40/aq=1: 1.00
    Default : Yes
    Forced : No
    Audio
    ID : 2
    Format : AC-3
    Format/Info : Audio Coding 3
    Mode extension : CM (complete main)
    Format settings, Endianness : Big
    Codec ID : A_AC3
    Duration : 1h 53mn
    Bit rate mode : Constant
    Bit rate : 384 Kbps
    Channel(s) : 6 channels
    Channel positions : Front: L C R, Side: L R, LFE
    Sampling rate : 48.0 KHz
    Bit depth : 16 bits
    Compression mode : Lossy
    Stream size : 313 MiB (14%)
    Default : Yes
    Forced : No


    Онлайн видео Белоснежка и Охотник 2


    Размер скачиваемого торрента: 2.16 GB (2324078116 Bytes)

    Белоснежка и Охотник 2/The Huntsman: Winters War (2016) WEB-DLRip-AVC от Scarabey | iTunes
    загрузка...
    Рейтинг →
     (голосов: 1, оценка 3/5, голосовать можно 1 раз )

    Другие торренты по теме:

  • Белоснежка и охотник / Snow White and the Huntsman (2012) BDRip 720p | D | Расширенная версия
  • Белоснежка и охотник / Snow White And The Huntsman (2012) BDRip 1080p от GORESEWAGE | Extended Cut
  • Белоснежка и охотник / Snow White And The Huntsman (2012) BDRemux 1080p от GORESEWAGE | Extended Cut скачать через торрент бесплатно
  • Белоснежка и охотник / Snow White And The Huntsman (2012) BDRip 1080p | Extended | D, A
  • Белоснежка и охотник / Snow White and the Huntsman (2012) BDRip 720p от Leonardo and Scarabey | Лицензия | Расширенная версия скачать через торрент бесплатно
  • Белоснежка и охотник / Snow White and the Huntsman
  • Белоснежка и охотник / Snow White and the Huntsman (2012) BDRip-AVC от MediaClub | Extended | D, A скачать через торрент бесплатно
  • Белоснежка и Охотник 2 / The Huntsman: Winter's War (2016)


    • Комментарии (0):

      Информация

      Информация

        Посетители, находящиеся в группе Гости, не могут оставлять комментарии в данной новости.

        ↓ Меню



        ↓ Опрос

        А Вы добавили сайт в закладки?
        Да
        Не


        Top 10 за месяц (Фильмы)