.
Авторизация | Регистрация
» » Ночная смена / The Night Shift (2015) WEB-DL 720p | Flux-Team скачать торрент бесплатно




    Ночная смена / The Night Shift (2015) WEB-DL 720p | Flux-Team скачать торрент бесплатно

    Опубликовал: Админ | Дата: 20-06-2016, 05:01 | Просмотров: 55



    Русское название: Ночная смена
    Русское название в мировом прокате: The Night Shift
    Создали в: 2015
    Категория жанра: драма
    Главный режиссер:
    Марта Кулидж, Кевин Даулинг, Пьер Морель

    Актеры

    Оуэн Мэкен, Фредди Родригес, Джилл Флинт, Кен Люн, Роберт Бэйли мл., Брендан Фер, Джинэнн Гуссен, ДжейАр Лемон и др.
    Описание сериала:
    Бывшие армейские врачи работают в отделении экстренной помощи города Сан Антонио. На спасение пациентов порой отпущены считанные секунды, и за это время докторам предстоит применить все свои полученные на поле боя навыки, чтобы сразиться с последним врагом - смертью.
    Снималось в: США
    Время просмотра: ~ 00: 45: 00
    Создали в: Sachs/Judah Productions, Sony Pictures Television
    Перевод текста: Любительский (многоголосый) Flux-Team
    Субтитры: Отсутствуют
    Реклама: Отсутствует

    Файл
    Тип видео: MKV
    Качество фильма: WEB-DL 720p
    Информация о видео: 1280x718 (16: 9), 23.976 fps, ~4100 kbps avg, 0.184 bit/pixel
    Информация о звуке RUS: 48 kHz, AC3, 6 ch, ~384.00 kbps avg
    Информация о звуке ENG: 48 kHz, AC3, 6 ch, ~384.00 kbps avg
    Релиз группа:

    MediaInfo
    Формат : Matroska
    Версия формата : Version 4/Version 2
    Размер файла : 1, 43 Гбайт
    Продолжительность : 42 м.
    Общий поток : 4839 Кбит/сек
    Дата кодирования : UTC 2016-04-05 20: 15: 24
    Программа кодирования : mkvmerge v8.9.0 (;Father Daughter;) 32bit
    Библиотека кодирования : libebml v1.3.3 + libmatroska v1.4.4
    Обложка : Yes
    Attachments : cover.jpg
    Видео
    Идентификатор : 1
    Формат : AVC
    Формат/Информация : Advanced Video Codec
    Профиль формата : High@L3.1
    Параметр CABAC формата : Нет
    Параметр ReFrames формата : 2 кадра
    Идентификатор кодека : V_MPEG4/ISO/AVC
    Продолжительность : 42 м.
    Битрейт : 4064 Кбит/сек
    Ширина : 1280 пикселей
    Высота : 718 пикселей
    Соотношение сторон : 16: 9
    Режим частоты кадров : Постоянный
    Частота кадров : 23, 976 (23976/1000) кадра/сек
    Цветовое пространство : YUV
    Субдискретизация насыщенности : 4: 2: 0
    Битовая глубина : 8 бит
    Тип развёртки : Прогрессивная
    Бит/(Пиксели*Кадры) : 0.184
    Размер потока : 1, 20 Гбайт (84%)
    Язык : English
    Default : Да
    Forced : Нет
    Цветовой диапазон : Limited
    Основные цвета : BT.709
    Характеристики трансфера : BT.709
    Коэффициенты матрицы : BT.709
    Аудио #1
    Идентификатор : 2
    Формат : AC-3
    Формат/Информация : Audio Coding 3
    Расширение режима : CM (complete main)
    Параметр Endianness формата : Big
    Идентификатор кодека : A_AC3
    Продолжительность : 42 м.
    Вид битрейта : Постоянный
    Битрейт : 384 Кбит/сек
    Каналы : 6 каналов
    Расположение каналов : Front: L C R, Side: L R, LFE
    Частота : 48, 0 КГц
    Частота кадров : 31, 250 кадров/сек (1536 spf)
    Метод сжатия : С потерями
    Размер потока : 116 Мбайт (8%)
    Заголовок : MVO Flux-Team
    Язык : Russian
    Default : Да
    Forced : Нет
    Аудио #2
    Идентификатор : 3
    Формат : AC-3
    Формат/Информация : Audio Coding 3
    Расширение режима : CM (complete main)
    Параметр Endianness формата : Big
    Идентификатор кодека : A_AC3
    Продолжительность : 42 м.
    Вид битрейта : Постоянный
    Битрейт : 384 Кбит/сек
    Каналы : 6 каналов
    Расположение каналов : Front: L C R, Side: L R, LFE
    Частота : 48, 0 КГц
    Частота кадров : 31, 250 кадров/сек (1536 spf)
    Метод сжатия : С потерями
    Размер потока : 116 Мбайт (8%)
    Заголовок : Original
    Язык : English
    Default : Нет
    Forced : Нет
    Внимание! Раздача ведётся путём добавления новых серий
    Внимание! Раздача ведётся путём добавления новых серий; при каждом добавлении создаётся новый торрент. Чтобы начать докачку новой серии, пользователям необходимо сделать следующее:
    (1) остановить скачивание,
    (2) удалить старый торрент у себя из клиента (старые серии удалять не надо),
    (3) скачать новый торрент и запустить его у себя в клиенте вместо старого, при этом указать клиенту путь в старую папку куда и должно происходить скачивание новых серий.
    Ваш клиент при этом должен произвести хеширование (проверку) старой папки (если не производит сам - помогите ему сделать это), и будет докачивать только те серии которых у вас ещё нет. Старые серии при этом не удаляются, а продолжают раздаваться!
    Eсли вы уже удалили старые серии, то предотвратить повторную закачку старых серий можно, отжав галочку в соответсвующих местах при запуске нового торрента. По возможности, желательно не удалять старые серии как можно дольше чтобы релизёр не столько продолжал раздавать старые серии, а смог сконцентрироваться на новых.
    Скриншоты

    Залил: SPARTA111

    Онлайн видео Ночная смена


    Размер скачиваемого торрента: 7.05 GB (7569084619 Bytes)

    Ночная смена/The Night Shift (2015) WEB-DL 720p | Flux-Team
    загрузка...
    Рейтинг →
     (голосов: 1, оценка 4/5, голосовать можно 1 раз )

    Другие торренты по теме:



      Комментарии (0):

      Информация

      Информация

        Посетители, находящиеся в группе Гости, не могут оставлять комментарии в данной новости.

        ↓ Меню



        ↓ Опрос

        А Вы добавили сайт в закладки?
        Да
        Не


        Top 10 за неделю (Фильмы)