.
Авторизация | Регистрация
Хочешь лучшие торренты? Добавь свой email!
Добавить
» » Хочу верить (1965) DVDRip от New-Team торрент скачать бесплатно


    Хочу верить (1965) DVDRip от New-Team торрент скачать бесплатно

    Опубликовал: Админ | Дата: 21-06-2016, 05:00 | Просмотров: 119



    Снималось в: СССР
    Создали в: Киностудия им. А. Довженко
    Категория жанра: военный фильм, драма, экранизация
    Создали в: 1965
    Время просмотра: 01: 17: 51
    Перевод текста: Не требуется
    Субтитры подготовлены: нет
    Оригинальная аудиодорожка: русский
    Главный режиссер: Николай Мащенко

    Актеры

    Алексей Сафонов, Екатерина Крупенникова, Юрий Лавров, Никола Попович, Анатолий Иванов (VIII), Михаил Мансуров, Анна Николаева, Мария Самойлова, Алла Ледовая, Людмила Глазова, Уно Лойт, Виктор Чекмарёв, Игорь Ледогоров, Пётр Вескляров...
    Полный список актёров
    Описание:
    По мотивам одноименной повести И. Голосовского.
    Агент подпольщиков Днепропетровска Людмила Зайковская, пользуясь расположением немецких офицеров к себе, узнавала о тайных операциях третьего рейха. В 1942 году фашисты разоблачили Людмилу и ее боевых товарищей, но после войны собранные данные оказались против Людмилы, и ее имя было запятнано. По прошествии 20 лет, полагаясь на ошибочные архивные данные, молодой журналист Алексей Трофименко (Алексей Сафонов) пишет статью о предательстве Людмилы. Но тут обнаруживаются свидетели, утверждающие о невиновности Зайковской. Алексей старается узнать правду и восстановить славное имя отважной женщины.



    Источник: DVD5 R5
    Качество фильма видео: DVDRip
    Тип видео видео: AVI
    Информация о видео: 640x480 (4: 3), 25 fps, XviD ~ 1201 kbps avg, 0.156 bit/pixel
    Информация о звуке: 48 kHz, MP3 2.0, 128 kbps
    Раздача от:
    MediaInfo

    Общее
    Полное имя : Hochu.verit.1965.DVDRip-745_New-team_by_AVP_Studio.avi
    Формат : AVI
    Формат/Информация : Audio Video Interleave
    Размер файла : 745 Мбайт
    Продолжительность : 1 ч. 17 м.
    Общий поток : 1339 Кбит/сек
    Программа кодирования : VirtualDubMod 1.5.10.3 | www.virtualdub-fr.org || (build 2550/release)
    Библиотека кодирования : VirtualDubMod build 2550/release
    Видео
    Идентификатор : 0
    Формат : MPEG-4 Visual
    Профиль формата : Advanced Simple@L5
    Параметр BVOP формата : 1
    Параметр QPel формата : Нет
    Параметр GMC формата : Без точки перехода
    Параметр матрицы формата : Выборочная
    Идентификатор кодека : XVID
    Идентификатор кодека/Подсказка : XviD
    Продолжительность : 1 ч. 17 м.
    Битрейт : 1201 Кбит/сек
    Ширина : 640 пикселей
    Высота : 480 пикселей
    Соотношение сторон : 4: 3
    Частота кадров : 25, 000 кадров/сек
    Цветовое пространство : YUV
    Субдискретизация насыщенности : 4: 2: 0
    Битовая глубина : 8 бит
    Тип развёртки : Прогрессивная
    Метод сжатия : С потерями
    Бит/(Пиксели*Кадры) : 0.156
    Размер потока : 669 Мбайт (90%)
    Библиотека кодирования : XviD 73
    Аудио
    Идентификатор : 1
    Формат : MPEG Audio
    Версия формата : Version 1
    Профиль формата : Layer 3
    Идентификатор кодека : 55
    Идентификатор кодека/Подсказка : MP3
    Продолжительность : 1 ч. 17 м.
    Вид битрейта : Постоянный
    Битрейт : 128 Кбит/сек
    Каналы : 2 канала
    Частота : 48, 0 КГц
    Метод сжатия : С потерями
    Размер потока : 71, 3 Мбайт (10%)
    Выравнивание : Соединение по промежуткам
    Продолжительность промежутка : 40 мс. (1, 00 видеокадр)
    Время предзагрузки промежутка : 504 мс.
    Библиотека кодирования : LAME3.99r
    Залил: AVPStudio

    Онлайн видео Хочу верить (1965) DVDRip от New


    Размер скачиваемого торрента: 745.34 MB (781545472 Bytes)


    Хочу верить (1965) DVDRip от New-Team
    загрузка...
    Рейтинг →
     (голосов: 1, оценка 3/5, голосовать можно 1 раз )

    Другие торренты по теме:

  • Секретные материалы: Хочу верить / The X Files: I Want to Believe (2008) BDRip-AVC от Rulya74 | Режиссерская версия
  • Секретные материалы: Хочу верить / The X-Files: I Want to Believe (2008) HDTVRip-AVC от New-Team | D
  • Хочу верить (1965) DVDRip-AVC от New-Team
  • Секретные материалы: Хочу верить / The X-Files: I Want to Believe (2008) BDRip 720p от k.e.n MegaPeer | D, A | Extended Cut
  • Секретные материалы: Хочу верить / The X-Files: I Want to Believe (2008) BDRip от MegaPeer | D


    • Комментарии (0):

      Информация

      Информация

        Посетители, находящиеся в группе Гости, не могут оставлять комментарии в данной новости.

        ↓ Меню



        ↓ Опрос

        А Вы добавили сайт в закладки?
        Да
        Не


        Top 10 за месяц (Фильмы)