.
Авторизация | Регистрация
» » Хранители / Watchmen (2009) BDRip 1080p HEVC | Режиссерская версия | D, P, A скачать торрент бесплатно




    Хранители / Watchmen (2009) BDRip 1080p HEVC | Режиссерская версия | D, P, A скачать торрент бесплатно

    Опубликовал: Админ | Дата: 21-06-2016, 05:00 | Просмотров: 94


    Хранители/Watchmen (2009) Режиссерская версия/Director;s Cut

    Детально о кино
    Русское название: Хранители
    Русское название в мировом прокате: Watchmen
    Создали в: 2009
    Категория жанра: фантастика, триллер, нуар
    Главный режиссер: Зак Снайдер /Zack Snyder/

    Актеры
    Малин Акерман /Malin Akerman/, Билли Крудап /Billy Crudup/, Мэттью Гуд /Matthew Goode/, Джеки Эрл Хейли /Jackie Earle Haley/, Джеффри Дин Морган /Jeffrey Dean Morgan/, Карла Гуджино /Carla Gugino/...

    Сюжет фильма

    Действие картины разворачивается в параллельной реальности, в Америке 1985 года. В этом мире супергерои стали частью повседневной жизни общества, а Часы Судного Дня, застыв в пяти минутах от полуночи, отсчитывают время до столкновения ведущих мировых держав. После убийства одного из своих прежних коллег Роршах — супергерой, никогда не снимающий маски, — полон решимости свершить суд Линча.
    Он начинает расследование заговора, призванного уничтожить или дискредитировать всех супергероев прошлого и настоящего. Он собирает своих соратников — отставной легион борцов с преступностью, но лишь один из них обладает подлинной силой. Постепенно Роршах осознает пугающий масштаб заговора, связанного с общим прошлым героев и сулящего катастрофические последствия в будущем. Они хранят наш покой, но кто охранит нас от Хранителей?

    Снималось в: США
    Время просмотра: 03: 06: 29
    Перевод текста:
    русский дублированный со вставками многоголосого закадрового - лучший монтаж
    русский профессиональный многоголосый закадровый (Киномания)
    русский авторский одноголосый (Сербин)
    русский авторский одноголосый (Строев, версия 2)
    Файл
    Качество фильма: BDRip 1080p (UK source)
    Тип видео: MKV
    Информация о видео кодек: x265 (HEVC)
    Информация о звуке кодек: AC3, AAC
    Информация о видео: 1920x800 (2.4: 1), 9915 kbps, 23.976 fps
    Информация о звуке №1: Russian, AC3, 6ch, 48 kHz, 640 kbps (Дубляж)
    Информация о звуке №2: Russian, AC3, 6ch, 48 kHz, 640 kbps (Многоголосый, Киномания)
    Информация о звуке №3: Russian, AC3, 6ch, 48 kHz, 640 kbps (Одноголосый, Сербин)
    Информация о звуке №4: Russian, AC3, 6ch, 48 kHz, 448 kbps (Одноголосый, Строев)
    Информация о звуке №5: English, AC3, 6ch, 48 kHz, 640 kbps (Оригинал)
    Информация о звуке №6: English, AAC-LC, 2ch, 48 kHz, 85 kbps (Комментарии Зака Снайдера)
    Информация о звуке №7: English, AAC-LC, 2ch, 48 kHz, 96 kbps (Комментарии Дэйва Гиббонса)
    Субтитры №1: Russian, SRT, Нотабеноид
    Субтитры №2: Russian, SRT, Киномания
    Субтитры №3: Russian, SRT, Строев
    Субтитры №4: English, SRT
    Субтитры №5: English, SRT, комментарии Зака Снайдера
    Субтитры №6: English, SRT, комментарии Дэйва Гиббонса
    Семпл
    Скриншоты


    Внимание! HEVC

    H.265/HEVC (High Efficiency Video Coding) - это новый стандарт кодирования видео.
    Кодек HEVC в настоящее время не поддерживается множеством аппаратных проигрывателей.
    Для корректного воспроизведения может потребоваться обновление ПО.
    Стандарт H.265/HEVC является логическим продолжением стандарта H.264/AVC (Advanced Video Coding), и характеризуется более эффективными алгоритмами сжатия, а также поддержкой высокого разрешения вплоть до 8K UHD (8192x4320).
    Любителям решения из коробки - установить последнюю версию на выбор:
    Media Player Classic - Black Edition (MPC-BE)
    VLC media player
    Daum Pot Player
    GOM Media Player
    Любителям WMP и других плееров, использующих по умолчанию для воспроизведения системные кодеки+сплитеры - установить K-Lite Codec Pack версии 10.1.0 и выше.
    Любимые плееры, не использующии по умолчанию для воспроизведения системные кодеки+сплитеры, нужно перенастроить на использование оных.

    MediaInfo
    Format : Matroska
    Format version : Version 4/Version 2
    File size : 17.1 GiB
    Duration : 3h 6mn
    Overall bit rate : 13.1 Mbps
    Movie name : Watchmen (2009) BDRip
    Encoded date : UTC 2016-06-20 15: 45: 59
    Writing application : mkvmerge v9.2.0 (;Photograph;) 64bit
    Writing library : libebml v1.3.3 + libmatroska v1.4.4
    Cover : Yes
    Attachments : Cover.jpg
    Video
    ID : 1
    Format : HEVC
    Format/Info : High Efficiency Video Coding
    Format profile : Main@L4.1@High
    Codec ID : V_MPEGH/ISO/HEVC
    Duration : 3h 6mn
    Bit rate : 9 915 Kbps
    Width : 1 920 pixels
    Height : 800 pixels
    Display aspect ratio : 2.40: 1
    Frame rate mode : Constant
    Frame rate : 23.976 (24000/1001) fps
    Color space : YUV
    Chroma subsampling : 4: 2: 0
    Bit depth : 8 bits
    Bits/(Pixel*Frame) : 0.269
    Stream size : 12.9 GiB (76%)
    Writing library : x265 0.0: WindowsGCC 5.3.064 bit 8bit: KG7x x265.ru
    Encoding settings : wpp/ctu=64/min-cu-size=8/max-tu-size=32/tu-intra-depth=1/tu-inter-depth=1/me=2/subme=4/merange=64/no-rect/no-amp/max-merge=3/temporal-mvp/no-early-skip/recursion-skip/rdpenalty=0/no-tskip/no-tskip-fast/strong-intra-smoothing/no-lossless/no-cu-lossless/no-constrained-intra/no-fast-intra/open-gop/no-temporal-layers/interlace=0/keyint=250/min-keyint=23/scenecut=40/rc-lookahead=64/lookahead-slices=5/bframes=16/bframe-bias=0/b-adapt=2/ref=6/limit-refs=3/no-limit-modes/weightp/weightb/aq-mode=1/qg-size=32/aq-strength=1.00/cbqpoffs=0/crqpoffs=0/rd=3/psy-rd=1.50/rdoq-level=2/psy-rdoq=2.00/no-rd-refine/signhide/deblock=-6: -6/sao/no-sao-non-deblock/b-pyramid/cutree/no-intra-refresh/rc=crf/crf=15.5/qcomp=0.60/qpmin=0/qpmax=51/qpstep=4/vbv-maxrate=50000/vbv-bufsize=50000/crf-max=0.0/ipratio=1.40/pbratio=1.30
    Language : English
    Default : Yes
    Forced : No
    Audio #1
    ID : 2
    Format : AC-3
    Format/Info : Audio Coding 3
    Mode extension : CM (complete main)
    Format settings, Endianness : Big
    Codec ID : A_AC3
    Duration : 3h 6mn
    Bit rate mode : Constant
    Bit rate : 640 Kbps
    Channel(s) : 6 channels
    Channel positions : Front: L C R, Side: L R, LFE
    Sampling rate : 48.0 KHz
    Frame rate : 31.250 fps (1536 spf)
    Compression mode : Lossy
    Stream size : 854 MiB (5%)
    Title : Dub + MVO (Kinomania)
    Language : Russian
    Default : Yes
    Forced : No
    Audio #2
    ID : 3
    Format : AC-3
    Format/Info : Audio Coding 3
    Mode extension : CM (complete main)
    Format settings, Endianness : Big
    Codec ID : A_AC3
    Duration : 3h 6mn
    Bit rate mode : Constant
    Bit rate : 640 Kbps
    Channel(s) : 6 channels
    Channel positions : Front: L C R, Side: L R, LFE
    Sampling rate : 48.0 KHz
    Frame rate : 31.250 fps (1536 spf)
    Compression mode : Lossy
    Stream size : 854 MiB (5%)
    Title : MVO (Kinomania)
    Language : Russian
    Default : No
    Forced : No
    Audio #3
    ID : 4
    Format : AC-3
    Format/Info : Audio Coding 3
    Mode extension : CM (complete main)
    Format settings, Endianness : Big
    Codec ID : A_AC3
    Duration : 3h 6mn
    Bit rate mode : Constant
    Bit rate : 640 Kbps
    Channel(s) : 6 channels
    Channel positions : Front: L C R, Side: L R, LFE
    Sampling rate : 48.0 KHz
    Frame rate : 31.250 fps (1536 spf)
    Compression mode : Lossy
    Stream size : 854 MiB (5%)
    Title : AVO (Serbin)
    Language : Russian
    Default : No
    Forced : No
    Audio #4
    ID : 5
    Format : AC-3
    Format/Info : Audio Coding 3
    Mode extension : CM (complete main)
    Format settings, Endianness : Big
    Codec ID : A_AC3
    Duration : 3h 6mn
    Bit rate mode : Constant
    Bit rate : 448 Kbps
    Channel(s) : 6 channels
    Channel positions : Front: L C R, Side: L R, LFE
    Sampling rate : 48.0 KHz
    Frame rate : 31.250 fps (1536 spf)
    Compression mode : Lossy
    Stream size : 598 MiB (3%)
    Title : AVO (Stroev)
    Language : Russian
    Default : No
    Forced : No
    Audio #5
    ID : 6
    Format : AC-3
    Format/Info : Audio Coding 3
    Mode extension : CM (complete main)
    Format settings, Endianness : Big
    Codec ID : A_AC3
    Duration : 3h 6mn
    Bit rate mode : Constant
    Bit rate : 640 Kbps
    Channel(s) : 6 channels
    Channel positions : Front: L C R, Side: L R, LFE
    Sampling rate : 48.0 KHz
    Frame rate : 31.250 fps (1536 spf)
    Compression mode : Lossy
    Stream size : 854 MiB (5%)
    Title : Original
    Language : English
    Default : No
    Forced : No
    Audio #6
    ID : 7
    Format : AAC
    Format/Info : Advanced Audio Codec
    Format profile : LC
    Codec ID : A_AAC
    Duration : 3h 6mn
    Bit rate : 84.6 Kbps
    Channel(s) : 2 channels
    Channel positions : Front: L R
    Sampling rate : 48.0 KHz
    Frame rate : 46.875 fps (1024 spf)
    Compression mode : Lossy
    Delay relative to video : 9ms
    Stream size : 113 MiB (1%)
    Title : Commentary #1 (director Zack Snyder)
    Language : English
    Default : No
    Forced : No
    Audio #7
    ID : 8
    Format : AAC
    Format/Info : Advanced Audio Codec
    Format profile : LC
    Codec ID : A_AAC
    Duration : 3h 6mn
    Bit rate : 96.0 Kbps
    Channel(s) : 2 channels
    Channel positions : Front: L R
    Sampling rate : 48.0 KHz
    Frame rate : 46.875 fps (1024 spf)
    Compression mode : Lossy
    Delay relative to video : 9ms
    Stream size : 126 MiB (1%)
    Title : Commentary #2 (screenwriter Dave Gibbons)
    Language : English
    Default : No
    Forced : No
    Text #1
    ID : 9
    Format : UTF-8
    Codec ID : S_TEXT/UTF8
    Codec ID/Info : UTF-8 Plain Text
    Duration : 2h 59mn
    Bit rate : 90 bps
    Count of elements : 1910
    Stream size : 119 KiB (0%)
    Title : Notabenoid
    Language : Russian
    Default : No
    Forced : No
    Text #2
    ID : 10
    Format : UTF-8
    Codec ID : S_TEXT/UTF8
    Codec ID/Info : UTF-8 Plain Text
    Duration : 2h 59mn
    Bit rate : 84 bps
    Count of elements : 1949
    Stream size : 111 KiB (0%)
    Title : Kinomania
    Language : Russian
    Default : No
    Forced : No
    Text #3
    ID : 11
    Format : UTF-8
    Codec ID : S_TEXT/UTF8
    Codec ID/Info : UTF-8 Plain Text
    Duration : 2h 59mn
    Bit rate : 90 bps
    Count of elements : 1910
    Stream size : 119 KiB (0%)
    Title : Stroev
    Language : Russian
    Default : No
    Forced : No
    Text #4
    ID : 12
    Format : UTF-8
    Codec ID : S_TEXT/UTF8
    Codec ID/Info : UTF-8 Plain Text
    Duration : 2h 59mn
    Bit rate : 52 bps
    Count of elements : 1937
    Stream size : 68.4 KiB (0%)
    Language : English
    Default : No
    Forced : No
    Text #5
    ID : 13
    Format : UTF-8
    Codec ID : S_TEXT/UTF8
    Codec ID/Info : UTF-8 Plain Text
    Duration : 3h 5mn
    Bit rate : 85 bps
    Count of elements : 2454
    Stream size : 116 KiB (0%)
    Title : Commentary #1 (director Zack Snyder)
    Language : English
    Default : No
    Forced : No
    Text #6
    ID : 14
    Format : UTF-8
    Codec ID : S_TEXT/UTF8
    Codec ID/Info : UTF-8 Plain Text
    Duration : 3h 0mn
    Bit rate : 44 bps
    Count of elements : 1207
    Stream size : 58.6 KiB (0%)
    Title : Commentary #2 (screenwriter Dave Gibbons)
    Language : English
    Default : No
    Forced : No
    Menu
    00: 00: 00.000 : en: Unforgettable Fall
    00: 05: 41.674 : en: Changing Times Credits
    00: 11: 16.133 : en: Somebody Knows Why
    00: 16: 05.339 : en: Us Retired Guys
    00: 19: 05.561 : en: Hiding in Plain Sight
    00: 23: 48.760 : en: Friendly Warnings
    00: 26: 39.472 : en: Interference
    00: 31: 37.937 : en: Not That Many Laughs
    00: 36: 26.851 : en: Tough All Over
    00: 41: 01.375 : en: Vietnam Victory Night
    00: 44: 58.612 : en: Right Leadership
    00: 47: 27.302 : en: What Happened to Us?
    00: 51: 40.555 : en: Moloch;s Second Visitor
    00: 56: 10.200 : en: I Am Pagliacci
    00: 58: 17.869 : en: Unwanted Responsibility
    01: 00: 58.905 : en: Shadows in the Fog
    01: 04: 13.224 : en: Leave Me Alone
    01: 11: 22.736 : en: Old Photographs
    01: 13: 14.223 : en: The Accident
    01: 16: 45.851 : en: Something Lethal
    01: 18: 47.222 : en: Tired of Earth
    01: 21: 47.485 : en: Executive Decision
    01: 26: 52.040 : en: Making a Killing
    01: 31: 17.930 : en: Framed
    01: 37: 09.448 : en: Rorschach Test
    01: 41: 10.314 : en: Dogs Get Put Down
    01: 46: 57.369 : en: He Doesn;t See Me
    01: 53: 50.657 : en: Tired of Being Afraid
    01: 57: 18.656 : en: Night Riders
    02: 03: 03.083 : en: Come and Get Me
    02: 06: 07.226 : en: Prison Break
    02: 10: 23.690 : en: Final Battle
    02: 15: 18.693 : en: How We Do Things
    02: 19: 31.863 : en: Do It for Me
    02: 22: 13.399 : en: Pyramid Scheme
    02: 27: 10.863 : en: Shattering and Miraculous
    02: 33: 54.766 : en: Antarctica Arrival
    02: 36: 37.471 : en: World;s Punishment
    02: 41: 02.861 : en: Detonation
    02: 44: 25.688 : en: Reassembled
    02: 47: 31.624 : en: Keep Your Own Secrets
    02: 51: 02.084 : en: Goodbyes
    02: 55: 06.787 : en: Still America
    02: 59: 45.774 : en: End Credits

    x265 log
    x265 info: using cpu capabilities: MMX2 SSE2Fast SSSE3 SSE4.2 AVX AVX2 FMA3 LZCNT BMI2
    x265 info: Main profile, Level-4.1 (High tier)
    x265 info: Thread pool created using 8 threads
    x265 info: frame threads/pool features : 3/wpp(13 rows)
    x265 info: Coding QT: max CU size, min CU size : 64/8
    x265 info: Residual QT: max TU size, max depth : 32/1 inter/1 intra
    x265 info: ME/range/subpel/merge : umh/64/4/3
    x265 info: Keyframe min/max/scenecut : 23/250/40
    x265 info: Lookahead/bframes/badapt : 64/16/2
    x265 info: b-pyramid/weightp/weightb : 1/1/1
    x265 info: References/ref-limit cu/depth : 6/on/on
    x265 info: AQ: mode/str/qg-size/cu-tree : 1/1.0/32/1
    x265 info: Rate Control/qCompress : CRF-15.5/0.60
    x265 info: VBV/HRD buffer/max-rate/init : 50000/50000/0.900
    x265 info: tools: rd=3 psy-rd=1.50 rdoq=2 psy-rdoq=2.00 recursion-skip
    x265 info: tools: signhide tmvp strong-intra-smoothing lslices=5
    x265 info: tools: deblock(tC=-6: B=-6) sao
    x265 info: frame I: 2239, Avg QP: 14.01 kb/s: 29820.64
    x265 info: frame P: 39424, Avg QP: 15.21 kb/s: 19328.23
    x265 info: frame B: 226611, Avg QP: 19.16 kb/s: 8079.83
    x265 info: Weighted P-Frames: Y: 4.7% UV: 3.8%
    x265 info: Weighted B-Frames: Y: 4.6% UV: 3.3%
    x265 info: consecutive B-frames: 9.2% 2.8% 4.6% 11.5% 9.0% 27.4% 7.8% 5.1% 4.6% 2.8% 3.1% 6.3% 1.5% 0.8% 1.0% 1.0% 1.4%
    encoded 268274 frames in 105285.44s (4.55 fps), 9914.28 kb/s, Avg QP: 18.54


    Онлайн видео Хранители


    Размер скачиваемого торрента: 17.07 GB (18333168074 Bytes)

    Хранители/Watchmen (2009) BDRip 1080p HEVC | Режиссерская версия | D, P, A
    загрузка...
    Рейтинг →
     (голосов: 1, оценка 4/5, голосовать можно 1 раз )

    Другие торренты по теме:

  • Хранители / Watchmen (2009) BDRip 720p от DHT-Movies | Режиссерская версия торрент скачать бесплатно
  • Хранители / Watchmen (2009) BDRip 1080p от NoLimits-Team FireBit-Films | Максимальная версия торрент скачать бесплатно
  • Хранители / Watchmen (2009) BDRip-AVC от HELLYWOOD | Режиссерская версия торрент скачать бесплатно
  • Хранители / Watchmen (2009) BDRip 1080p | Театральная версия скачать через торрент бесплатно
  • Хранители / Watchmen (2009) BDRip 720p | Максимальная версия | 60 FPS скачать через торрент бесплатно
  • Хранители / Watchmen (2009) 2хDVD9 | D | Коллекционное издание торрент скачать бесплатно
  • Хранители / Watchmen (2009) BDRip 720p от Leonardo | Ultimate Cut | D скачать торрент бесплатно
  • Хранители: История Чёрной Шхуны / Watchmen: Tales of the Black Freighter (2009) HDRip | L торрент скачать бесплатно


    • Комментарии (0):

      Информация

      Информация

        Посетители, находящиеся в группе Гости, не могут оставлять комментарии в данной новости.

        ↓ Меню



        ↓ Опрос

        А Вы добавили сайт в закладки?
        Да
        Не


        Top 10 за неделю (Фильмы)