.
Авторизация | Регистрация
» » Дивергент, глава 3: За стеной / Allegiant (2016) WEB-DL 1080p | iTunes скачать торрент бесплатно




    Дивергент, глава 3: За стеной / Allegiant (2016) WEB-DL 1080p | iTunes скачать торрент бесплатно

    Опубликовал: Админ | Дата: 22-06-2016, 05:00 | Просмотров: 37



    Детально о кино
    Русское название: Дивергент, глава 3: За стеной
    Русское название в мировом прокате: Allegiant
    Создали в: 2016
    Категория жанра: Фантастика, боевик, приключения
    Главный режиссер: Роберт Швентке

    Актеры
    Шейлин Вудли, Тео Джеймс, Энсел Элгорт, Зои Кравиц, Майлз Теллер, Джефф Дэниелс, Наоми Уоттс, Мэгги Кью, Билл Скарсгард, Кейнан Лонсдейл, Надиа Хилкер, Октавия Спенсер, Дэниэл Дэ Ким, Джонни Уэстон, Энди Бин, Рэй Стивенсон, Мекхай Файфер, Джозеф Дэвид-Джонс, Эшли Джадд, Джош Давендек

    Сюжет фильма

    Трис, Фор и их друзья приняли решение выбраться за пределы Чикаго. Герои стремятся выяснить, что же на самом деле происходит за стеной города, которая долгий период закрывала их от внешнего мира. Компания рассчитывала обрести свободу, но вместо этого оказывается в Бюро Генетической Защиты. Они должны быстро разобраться, кому можно доверять, так как битва, разгорающаяся за стенами города, угрожает всему человечеству. Чтобы выжить, Трис придется сделать непростой выбор между мужеством, верностью, любовью и необходимостью идти на жертвы.

    Снималось в: США
    Киностудия: Lionsgate, Red Wagon Productions, Summit Entertainment
    Время просмотра: 02: 00: 33
    Перевод текста: Дублированный
    Файл
    Кодек для видео: MPEG4 Video (H264)
    Качество фильма: WEB-DL 1080p | iTunes
    Информация о видео: 1912x792, 4350 Kbps, 23.976fp
    Информация о звуке:
    Аудио #1: Русский (АС3, 6 ch, 384 Кбит/с) Дублированное iTunes
    Аудио #2: Английский (АС3, 6 ch, 384 Кбит/с) Оригинал
    Субтитры: английские
    Сравнение
    http://screenshotcomparison.com/comparison/176287

    Mediainfo
    Общее
    Уникальный идентификатор : 208924567893387805356897634726152702591 (0x9D2D687C054524C2946271AC4D930A7F)
    Полное имя : D: FilmAllegiant.2016.WEB-DL.1080p.mkv
    Формат : Matroska
    Версия формата : Version 2
    Размер файла : 4, 40 Гбайт
    Продолжительность : 2 ч. 0 м.
    Общий поток : 5222 Кбит/сек
    Дата кодирования : UTC 2016-06-21 14: 46: 15
    Программа кодирования : mkvmerge v4.0.0 (;The Stars were mine;) сборка от Jun 6 2010 16: 18: 42
    Библиотека кодирования : libebml v1.0.0 + libmatroska v1.0.0
    Видео
    Идентификатор : 1
    Формат : AVC
    Формат/Информация : Advanced Video Codec
    Профиль формата : High@L4
    Параметр CABAC формата : Да
    Параметр ReFrames формата : 5 кадров
    Идентификатор кодека : V_MPEG4/ISO/AVC
    Продолжительность : 2 ч. 0 м.
    Битрейт : 4350 Кбит/сек
    Ширина : 1912 пикселей
    Высота : 792 пикселя
    Соотношение сторон : 2, 40: 1
    Режим частоты кадров : Постоянный
    Частота кадров : 23, 976 (24000/1001) кадра/сек
    Цветовое пространство : YUV
    Субдискретизация насыщенности : 4: 2: 0
    Битовая глубина : 8 бит
    Тип развёртки : Прогрессивная
    Бит/(Пиксели*Кадры) : 0.120
    Размер потока : 3, 66 Гбайт (83%)
    Язык : English
    Default : Нет
    Forced : Нет
    Цветовой диапазон : Limited
    Основные цвета : BT.709
    Характеристики трансфера : BT.709
    Коэффициенты матрицы : BT.709
    Аудио #1
    Идентификатор : 2
    Формат : AC-3
    Формат/Информация : Audio Coding 3
    Расширение режима : CM (complete main)
    Параметр Endianness формата : Big
    Идентификатор кодека : A_AC3
    Продолжительность : 2 ч. 0 м.
    Вид битрейта : Постоянный
    Битрейт : 384 Кбит/сек
    Каналы : 6 каналов
    Расположение каналов : Front: L C R, Side: L R, LFE
    Частота : 48, 0 КГц
    Частота кадров : 31, 250 кадров/сек (1536 spf)
    Метод сжатия : С потерями
    Размер потока : 331 Мбайт (7%)
    Язык : Russian
    Default : Да
    Forced : Да
    Аудио #2
    Идентификатор : 3
    Формат : AC-3
    Формат/Информация : Audio Coding 3
    Расширение режима : CM (complete main)
    Параметр Endianness формата : Big
    Идентификатор кодека : A_AC3
    Продолжительность : 2 ч. 0 м.
    Вид битрейта : Постоянный
    Битрейт : 384 Кбит/сек
    Каналы : 6 каналов
    Расположение каналов : Front: L C R, Side: L R, LFE
    Частота : 48, 0 КГц
    Частота кадров : 31, 250 кадров/сек (1536 spf)
    Метод сжатия : С потерями
    Размер потока : 331 Мбайт (7%)
    Язык : English
    Default : Нет
    Forced : Нет
    Текст
    Идентификатор : 4
    Формат : UTF-8
    Идентификатор кодека : S_TEXT/UTF8
    Идентификатор кодека/Информация : UTF-8 Plain Text
    Язык : English
    Default : Нет
    Forced : Нет
    Меню
    00: 00: 00.000 : en: Chapter 1
    00: 09: 47.000 : en: Chapter 2
    00: 18: 47.000 : en: Chapter 3
    00: 26: 52.000 : en: Chapter 4
    00: 36: 10.000 : en: Chapter 5
    00: 45: 50.000 : en: Chapter 6
    00: 53: 32.000 : en: Chapter 7
    01: 03: 32.000 : en: Chapter 8
    01: 13: 24.000 : en: Chapter 9
    01: 23: 11.000 : en: Chapter 10
    01: 30: 52.000 : en: Chapter 11
    01: 40: 09.000 : en: Chapter 12
    01: 49: 16.000 : en: Chapter 13

    Скриншоты

    Залил: walledoll

    Онлайн видео Дивергент, глава 3: За стеной


    Размер скачиваемого торрента: 4.40 GB (4721811761 Bytes)

    Дивергент, глава 3: За стеной/Allegiant (2016) WEB-DL 1080p | iTunes
    загрузка...
    Рейтинг →
     (голосов: 1, оценка 3/5, голосовать можно 1 раз )

    Другие торренты по теме:

  • Дивергент, глава 2: Инсургент / Insurgent (2015) CAMRip скачать торрент бесплатно
  • Дивергент, глава 2: Инсургент / Insurgent (2015) WEBRip | Звук с TS скачать торрент бесплатно
  • Дивергент, глава 2: Инсургент / Insurgent (2015) HDTVRip–AVC | Чистый звук скачать торрент бесплатно
  • Дивергент, глава 2: Инсургент / Insurgent (2015) HDTVRip | Чистый звук скачать торрент бесплатно
  • Дивергент, глава 2: Инсургент / Insurgent (2015) HDRip от Scarabey | Чистый звук скачать торрент бесплатно
  • Дивергент, глава 2: Инсургент / Insurgent (2015) BDRip 720p | iTunes скачать торрент бесплатно
  • Дивергент, глава 2: Инсургент / Insurgent (2015) Blu-ray 1080p от HDCLUB | RUS Transfer | D | лицензия скачать торрент бесплатно
  • Дивергент, глава 2: Инсургент / Insurgent (2015) BDRip 720p | Лицензия скачать торрент бесплатно


    • Комментарии (0):

      Информация

      Информация

        Посетители, находящиеся в группе Гости, не могут оставлять комментарии в данной новости.

        ↓ Меню



        ↓ Опрос

        А Вы добавили сайт в закладки?
        Да
        Не


        Top 10 за неделю (Фильмы)