.
Авторизация | Регистрация
» » Первый мститель: Противостояние / Captain America: Civil War (2016) TC 720p | D, P скачать торрент бесплатно




    Первый мститель: Противостояние / Captain America: Civil War (2016) TC 720p | D, P скачать торрент бесплатно

    Опубликовал: Админ | Дата: 22-06-2016, 05:00 | Просмотров: 141



    Детально о кино
    Русское название: Первый мститель: Противостояние
    Русское название в мировом прокате: Captain America: Civil War
    Создали в: 2016
    Категория жанра: фантастика, боевик, приключения
    Главный режиссер: Энтони Руссо, Джо Руссо

    Актеры
    Крис Эванс, Роберт Дауни мл., Скарлетт Йоханссон, Себастьян Стэн, Энтони Маки, Дон Чидл, Джереми Реннер, Чедвик Боузман, Пол Беттани, Элизабет Олсен

    Сюжет фильма

    Мстители под руководством Капитана Америки оказываются участниками разрушительного инцидента, имеющего международный масштаб. Эти события заставляют правительство задуматься над тем, чтобы начать регулировать действия всех людей с особыми способностями, введя Акт о регистрации супергероев, вынуждая их подчиняться ООН. Видя в этом договоре нарушение гражданских прав и плевок на всё, во что он верит, Стив Роджерс открыто восстаёт против нового режима, ведя за собой группу героев, поддерживающих его мнение. В свою очередь, Тони Старк видит смысл в новом договоре и становится во главе героев, поддерживающих его. Всё это приводит к неизбежному расколу Мстителей и войне между сторонами. Сражаясь друг с другом, Старк и Роджерс не знают о том, что таинственный Барон Земо уже строит свои собственные планы, воспользовавшись расколом величайших героев Земли.

    Снималось в: США, Германия
    Киностудия: Marvel Entertainment, Marvel Studios Inc., Studio Babelsberg, Vita-Ray Dutch Productions (III)
    Время просмотра: 02: 27: 17
    Перевод текста: дублированный Line, профессиональный многоголосный FocusStudio
    Файл
    Кодек для видео: H.264
    Качество фильма: TC 720p
    Информация о видео: AVC, 1280x568 (2.25: 1), 23.970 fps ~ 4240 Kbps
    Информация о звуке:
    AC3, 48 KHz 2 ch ~ 192 Kb/s (дублированный)
    AC3, 48 KHz 2 ch ~ 192 Kb/s (FocusStudio)
    AC3, 48 KHz 2 ch ~ 192 Kb/s (английский)
    Субтитры: русские, местами корейские (вшитые)
    MI:

    Общее
    Уникальный идентификатор : 221465883939037716664200875284047564953 (0xA69CC71AE022F3B78D2ED91A7DAF9099)
    Полное имя : Q: TorFCaptain America.Civil War(2016)_TC.720p.mkv
    Формат : Matroska
    Версия формата : Version 2
    Размер файла : 5, 06 Гбайт
    Продолжительность : 2 ч. 27 м.
    Режим общего битрейта : Переменный
    Общий поток : 4915 Кбит/сек
    Название фильма : Captain America: Civil War_Dub @ FocusStudio
    Дата кодирования : UTC 2016-06-21 16: 51: 06
    Программа кодирования : mkvmerge v5.4.0 (;Piper;) built on Mar 10 2012 13: 34: 39
    Библиотека кодирования : libebml v1.2.3 + libmatroska v1.3.0
    Attachment : Yes
    Видео
    Идентификатор : 1
    Формат : AVC
    Формат/Информация : Advanced Video Codec
    Профиль формата : High@L4.1
    Параметр CABAC формата : Да
    Параметр ReFrames формата : 9 кадров
    Идентификатор кодека : V_MPEG4/ISO/AVC
    Продолжительность : 2 ч. 27 м.
    Вид битрейта : Переменный
    Битрейт : 4241 Кбит/сек
    Максимальный битрейт : 40, 0 Мбит/сек
    Ширина : 1280 пикселей
    Высота : 568 пикселей
    Соотношение сторон : 2, 25: 1
    Частота кадров : 29, 970 кадров/сек
    Цветовое пространство : YUV
    Субдискретизация насыщенности : 4: 2: 0
    Битовая глубина : 8 бит
    Тип развёртки : Прогрессивная
    Бит/(Пиксели*Кадры) : 0.195
    Размер потока : 4, 36 Гбайт (86%)
    Заголовок : Captain America_Civil War_TC 720p
    Язык : English
    Default : Да
    Forced : Нет
    Коэффициенты матрицы : BT.709-5, BT.1361, IEC 61966-2-4 709, SMPTE RP177
    Аудио #1
    Идентификатор : 2
    Формат : AC-3
    Формат/Информация : Audio Coding 3
    Расширение режима : CM (complete main)
    Идентификатор кодека : A_AC3
    Продолжительность : 2 ч. 27 м.
    Вид битрейта : Постоянный
    Битрейт : 192 Кбит/сек
    Каналы : 2 канала
    Расположение каналов : Front: L R
    Частота : 48, 0 КГц
    Битовая глубина : 16 бит
    Метод сжатия : С потерями
    Задержка видео : 6 мс.
    Размер потока : 202 Мбайт (4%)
    Заголовок : Dub (Line)
    Язык : Russian
    Default : Да
    Forced : Нет
    Аудио #2
    Идентификатор : 3
    Формат : AC-3
    Формат/Информация : Audio Coding 3
    Расширение режима : CM (complete main)
    Идентификатор кодека : A_AC3
    Продолжительность : 2 ч. 27 м.
    Вид битрейта : Постоянный
    Битрейт : 192 Кбит/сек
    Каналы : 2 канала
    Расположение каналов : Front: L R
    Частота : 48, 0 КГц
    Битовая глубина : 16 бит
    Метод сжатия : С потерями
    Размер потока : 202 Мбайт (4%)
    Заголовок : MVO FocusStudio
    Язык : Russian
    Default : Нет
    Forced : Нет
    Аудио #3
    Идентификатор : 4
    Формат : AC-3
    Формат/Информация : Audio Coding 3
    Расширение режима : CM (complete main)
    Идентификатор кодека : A_AC3
    Продолжительность : 2 ч. 27 м.
    Вид битрейта : Постоянный
    Битрейт : 192 Кбит/сек
    Каналы : 2 канала
    Расположение каналов : Front: L R
    Частота : 48, 0 КГц
    Битовая глубина : 16 бит
    Метод сжатия : С потерями
    Размер потока : 202 Мбайт (4%)
    Язык : English
    Default : Нет
    Forced : Нет
    Текст
    Идентификатор : 5
    Формат : UTF-8
    Идентификатор кодека : S_TEXT/UTF8
    Идентификатор кодека/Информация : UTF-8 Plain Text
    Заголовок : FocusStudio
    Язык : Russian
    Default : Нет
    Forced : Нет

    Семпл
    Скриншоты

    Во второй дорожке присутствует голосовая реклама в начале и конце фильма

    Онлайн видео Первый мститель: Противостояние


    Размер скачиваемого торрента: 5.06 GB (5428745916 Bytes)

    Первый мститель: Противостояние/Captain America: Civil War (2016) TC 720p | D, P
    загрузка...
    Рейтинг →
     (голосов: 1, оценка 5/5, голосовать можно 1 раз )

    Другие торренты по теме:

  • OST - Капитан Америка: Первый Мститель / Captain America: The First Avenger (2011) MP3 торрент скачать бесплатно
  • Первый мститель / Captain America: The First Avenger (2011) BDRip 1080p от Youtracker | Лицензия торрент скачать бесплатно
  • Первый мститель / Captain America: The First Avenger (2011) BDRip 720p от leonardo 59 Scarabey | Лицензия скачать через торрент бесплатно
  • Первый мститель: Другая война / Captain America: The Winter Soldier (2014) HD 1080p | Трейлер торрент скачать бесплатно
  • Первый мститель: Другая война / Captain America: The Winter Soldier (2014) DCPrip | 3D | Трейлер скачать через торрент бесплатно
  • Первый мститель: Другая война / Captain America: The Winter Soldier (2014) DCPrip 2K | Трейлер скачать через торрент бесплатно
  • Первый мститель: Другая война (2014) торрент скачать бесплатно
  • OST - Первый мститель: Другая война / Captain America: The Winter Soldier (2014) MP3 торрент скачать бесплатно


    • Комментарии (0):

      Информация

      Информация

        Посетители, находящиеся в группе Гости, не могут оставлять комментарии в данной новости.

        ↓ Меню



        ↓ Опрос

        А Вы добавили сайт в закладки?
        Да
        Не


        Top 10 за неделю (Фильмы)