.
Авторизация | Регистрация
Хочешь лучшие торренты? Добавь свой email!
Добавить
» » Правда - хорошо, а счастье лучше (1951) DVDRip от New-Team торрент скачать бесплатно




    Правда - хорошо, а счастье лучше (1951) DVDRip от New-Team торрент скачать бесплатно

    Опубликовал: Админ | Дата: 22-06-2016, 16:50 | Просмотров: 78



    Снималось в: СССР
    Создали в: Студия Горького
    Категория жанра: драма, мелодрама, комедия
    Создали в: 1951
    Время просмотра: 02: 18: 37
    Перевод текста: Не требуется
    Субтитры подготовлены: нет
    Оригинальная аудиодорожка: русский
    Главный режиссер: Сергей Женовач, Игорь Ларин

    Актеры

    Николай Рыжов, Евдокия Турчанинова, Валерия Новак, Варвара Рыжова, А. Карцев, Александр Сашин-Никольский, В. Баринова, Дмитрий Павлов, Федор Григорьев...
    Описание:
    Властная старуха Мавра Тарасовна, мать московского купца Амоса Панфиловича Барабошева, ищет для своей внучки Поликсены жениха-генерала. Но девушка любит приказчика Платона Зыбкина, честного и бедного парня, задолжавшего хозяину двести рублей. Платону грозит долговая тюрьма.
    Стараниями няньки Поликсены, решившей помочь влюбленным, в доме появляется новый сторож — отставной унтер-офицер Сила Ерофеевич Грознов, бывший любовник Мавры Тарасовны. Перепуганная тем, что старые грехи станут всем известны, старуха удовлетворяет требования Грознова — уничтожает вексель Платона и разрешает внучке выйти за него замуж.



    Источник: DVD9 R5
    Качество фильма видео: DVDRip
    Тип видео видео: AVI
    Информация о видео: 576x432 (4: 3), 25 fps, XviD ~ 987 kbps avg, 0.159 bit/pixel
    Информация о звуке: 48 kHz, MP3 2.0, 128 kbps
    Раздача от:
    MediaInfo

    Общее
    Полное имя : Pravda–horosho, a.schaste.luchshe.1951.DVDRip-1.09_New-team_by_AVP_Studio.avi
    Формат : AVI
    Формат/Информация : Audio Video Interleave
    Размер файла : 1, 09 Гбайт
    Продолжительность : 2 ч. 18 м.
    Общий поток : 1125 Кбит/сек
    Программа кодирования : VirtualDubMod 1.5.10.3 | www.virtualdub-fr.org || (build 2550/release)
    Библиотека кодирования : VirtualDubMod build 2550/release
    Видео
    Идентификатор : 0
    Формат : MPEG-4 Visual
    Профиль формата : Advanced Simple@L5
    Параметр BVOP формата : 1
    Параметр QPel формата : Нет
    Параметр GMC формата : Без точки перехода
    Параметр матрицы формата : Выборочная
    Идентификатор кодека : XVID
    Идентификатор кодека/Подсказка : XviD
    Продолжительность : 2 ч. 18 м.
    Битрейт : 987 Кбит/сек
    Ширина : 576 пикселей
    Высота : 432 пикселя
    Соотношение сторон : 4: 3
    Частота кадров : 25, 000 кадров/сек
    Цветовое пространство : YUV
    Субдискретизация насыщенности : 4: 2: 0
    Битовая глубина : 8 бит
    Тип развёртки : Прогрессивная
    Метод сжатия : С потерями
    Бит/(Пиксели*Кадры) : 0.159
    Размер потока : 979 Мбайт (88%)
    Библиотека кодирования : XviD 73
    Аудио
    Идентификатор : 1
    Формат : MPEG Audio
    Версия формата : Version 1
    Профиль формата : Layer 3
    Идентификатор кодека : 55
    Идентификатор кодека/Подсказка : MP3
    Продолжительность : 2 ч. 18 м.
    Вид битрейта : Постоянный
    Битрейт : 128 Кбит/сек
    Каналы : 2 канала
    Частота : 48, 0 КГц
    Метод сжатия : С потерями
    Размер потока : 127 Мбайт (11%)
    Выравнивание : Соединение по промежуткам
    Продолжительность промежутка : 40 мс. (1, 00 видеокадр)
    Время предзагрузки промежутка : 504 мс.
    Библиотека кодирования : LAME3.99r
    Залил: AVPStudio

    Онлайн видео Правда


    Размер скачиваемого торрента: 1.09 GB (1169633280 Bytes)


    Правда - хорошо, а счастье лучше (1951) DVDRip от New-Team
    загрузка...
    Рейтинг →
     (голосов: 1, оценка 3/5, голосовать можно 1 раз )

    Другие торренты по теме:

  • А.Н.Островский - Правда хорошо, а счастье лучше (2007) MP3
  • Правда - хорошо, а счастье лучше (1951) DVDRip от New-Team


    • Комментарии (0):

      Информация

      Информация

        Посетители, находящиеся в группе Гости, не могут оставлять комментарии в данной новости.

        ↓ Меню



        ↓ Опрос

        А Вы добавили сайт в закладки?
        Да
        Не


        Top 10 за месяц (Фильмы)