.
Авторизация | Регистрация
» » Не все собаки кусачие / Some Dogs Bite (2010) HDRip | Р скачать торрент бесплатно




    Не все собаки кусачие / Some Dogs Bite (2010) HDRip | Р скачать торрент бесплатно

    Опубликовал: Админ | Дата: 23-06-2016, 05:00 | Просмотров: 65



    Не все собаки кусачие / Baby Brother / Some Dogs Bite
    Снималось в: Великобритания
    Создали в: Kindle Entertainment
    Создали в: 2010
    Категория жанра: драма
    Время просмотра: 01: 24: 36
    Главный режиссер: Марк Манден
    Автор сценария: Лин Когхлан

    Актеры
    Томас Сэнгстер, Аарон Тейлор, Мишель Асанте, Диллон Мандип, Аймен Хамдуши, Кори Смит, Льюис Райан Дикинсон, Нэнси Болдуин
    Описание: После смерти матери три несовершеннолетних брата пытаются найти отца одного из них, чтобы он оформил над ними опеку, и они смогли продолжить жить вместе...

    Перевод текста: Профессиональный (многоголосый, закадровый) | Кинопоказ
    Субтитры: нет
    Качество фильма: HDRip
    Тип видео: АVI
    Информация о видео кодек: XviD
    Информация о звуке кодек: АС3
    Информация о видео: 720x400 (16: 9), 25.000 fps, XviD build 65 ~1 874 kbps avg, 0.260 bit/pixel
    Информация о звуке №1: 48.0 kHz, AC3 Dolby Digital, 2/0 (L, R) ch, ~192.00 kbps | RUS
    Информация о звуке №2: 48.0 kHz, AC3 Dolby Digital, 3/2 (L, C, R, l, r) + LFE ch, ~384 kbps | ENG
    Дата премьеры (мир): 1 октября 2010
    Media Info
    General
    Полное имя : Братская любовь.avi
    Формат : AVI
    Формат/Информация : Audio Video Interleave
    Размер файла : 1, 46 Гбайт
    Продолжительность : 1 ч. 24 м.
    Общий поток : 2464 Кбит/сек
    Название фильма : Братская любовь/Не все собаки кусачие/Baby Brother/Some Dogs Bite (2010)
    Программа кодирования : VirtualDubMod 1.5.10.2 (build 2540/release)
    Библиотека кодирования : VirtualDubMod build 2540/release
    Авторское право : miha2154
    Видео
    Идентификатор : 0
    Формат : MPEG-4 Visual
    Профиль формата : Advanced Simple@L5
    Параметр BVOP формата : 1
    Параметр QPel формата : Нет
    Параметр GMC формата : Без точки перехода
    Параметр матрицы формата : Выборочная
    Идентификатор кодека : XVID
    Идентификатор кодека/Подсказка : XviD
    Продолжительность : 1 ч. 24 м.
    Битрейт : 1874 Кбит/сек
    Ширина : 720 пикселей
    Высота : 400 пикселей
    Соотношение сторон : 16: 9
    Частота кадров : 25, 000 кадров/сек
    Цветовое пространство : YUV
    Субдискретизация насыщенности : 4: 2: 0
    Битовая глубина : 8 бит
    Тип развёртки : Прогрессивная
    Метод сжатия : С потерями
    Бит/(Пиксели*Кадры) : 0.260
    Размер потока : 1, 11 Гбайт (76%)
    Библиотека кодирования : XviD 65
    Аудио #1
    Идентификатор : 1
    Формат : AC-3
    Формат/Информация : Audio Coding 3
    Расширение режима : CM (complete main)
    Параметр Endianness формата : Big
    Идентификатор кодека : 2000
    Продолжительность : 1 ч. 24 м.
    Вид битрейта : Постоянный
    Битрейт : 192 Кбит/сек
    Каналы : 2 канала
    Расположение каналов : Front: L R
    Частота : 48, 0 КГц
    Частота кадров : 31, 250 кадров/сек (1536 spf)
    Метод сжатия : С потерями
    Размер потока : 116 Мбайт (8%)
    Выравнивание : Разделение по промежуткам
    Продолжительность промежутка : 40 мс. (1, 00 видеокадр)
    Время предзагрузки промежутка : 500 мс.
    Заголовок : Профессиональный (многоголосый закадровый) Кинопоказ
    Аудио #2
    Идентификатор : 2
    Формат : AC-3
    Формат/Информация : Audio Coding 3
    Расширение режима : CM (complete main)
    Параметр Endianness формата : Big
    Идентификатор кодека : 2000
    Продолжительность : 1 ч. 24 м.
    Вид битрейта : Постоянный
    Битрейт : 384 Кбит/сек
    Каналы : 6 каналов
    Расположение каналов : Front: L C R, Side: L R, LFE
    Частота : 48, 0 КГц
    Частота кадров : 31, 250 кадров/сек (1536 spf)
    Метод сжатия : С потерями
    Размер потока : 232 Мбайт (16%)
    Выравнивание : Разделение по промежуткам
    Продолжительность промежутка : 40 мс. (1, 00 видеокадр)
    Время предзагрузки промежутка : 500 мс.
    Заголовок : Английский

    Скриншоты

    Залил: Zha-4k-e

    Онлайн видео Не все собаки кусачие


    Размер скачиваемого торрента: 1.46 GB (1563731968 Bytes)

    Не все собаки кусачие/Some Dogs Bite (2010) HDRip | Р
    загрузка...
    Рейтинг →
     (голосов: 1, оценка 3/5, голосовать можно 1 раз )

    Другие торренты по теме:

  • Михаил Булгаков - Говорящая собака (2009) MP3 торрент скачать бесплатно
  • Кости и собаки / More Dogs Than Bones (2000) DVDRip от Brazzass торрент скачать бесплатно
  • 10 обещаний моей собаке / 10 promises to my dog / Inu to watashi no 10 no yakusoku (2008) DVDRip торрент скачать бесплатно
  • Любовь к собакам обязательна / Must Love Dogs (2005) WEB-DL 720p от HDClub торрент скачать бесплатно
  • Не будите спящую собаку / Flirting with Disaster (1996) BDRip 720p от HQCLUB торрент скачать бесплатно
  • Собака и Ножницы / Inu to Hasami wa Tsukaiyou (2013) WEBRip | AniFilm | Трейлер торрент скачать бесплатно
  • Белая собака / Белый пес / White Dog (1982) DVDRip | L1 торрент скачать бесплатно
  • Собака и Ножницы / Inu to Hasami wa Tsukaiyou (2013) HDTVRip 720p | AniFilm торрент скачать бесплатно


    • Комментарии (0):

      Информация

      Информация

        Посетители, находящиеся в группе Гости, не могут оставлять комментарии в данной новости.

        ↓ Меню



        ↓ Опрос

        А Вы добавили сайт в закладки?
        Да
        Не


        Top 10 за неделю (Фильмы)