.
Авторизация | Регистрация
» » Каждому своё / Everybody Wants Some!! (2016) WEB-DL 1080p от ExKinoRay | iTunes скачать торрент бесплатно




    Каждому своё / Everybody Wants Some!! (2016) WEB-DL 1080p от ExKinoRay | iTunes скачать торрент бесплатно

    Опубликовал: Админ | Дата: 23-06-2016, 05:00 | Просмотров: 95



    Детально о кино
    Русское название: Каждому своё
    Русское название в мировом прокате: Everybody Wants Some!!
    Создали в: 2016
    Категория жанра: Комедия
    Главный режиссер: Ричард Линклейтер

    Актеры
    Блейк Дженнер, Джастон Стрит, Райан Гузман, Тайлер Хэклин, Уайатт Расселл, Глен Пауэлл, Темпл Бэйкер, Дж. Куинтон Джонсон, Уилл Бриттейн, Кортни Тейлор

    Сюжет фильма

    Сексуальная революция и любовь, пьяные тусовки и травка, брендовые шмотки и топовая музыка… Первокурсник Джейк получает комнату в общежитии колледжа и погружается в порочный водоворот беззаботной жизни Америки 80-х. Он впервые познает вкус свободы и взрослой жизни, пока даже не задумываясь о последствиях.

    Снималось в: США
    Киностудия: Paramount Pictures, Detour Filmproduction, Annapurna Pictures
    Время просмотра: 01: 51: 51
    Перевод текста: Дублированный | iTunes
    Файл
    Кодек для видео: MPEG-4
    Качество фильма: WEB-DL 1080p
    Информация о видео: 1916x1076, 5115 Kbit/s, 23.976 fps
    Информация о звуке:
    Информация о звуке #01: 48 kHz, AC3, 5.1, 384 Kbps | Дублированный, iTunes |
    Информация о звуке #02: 48 kHz, AC3, 5.1, 384 kbps | Оригинал |
    Релиз подготовил: Автор релиза:

    MI
    General
    Unique ID : 205615810025548731831365343019039499247 (0x9AB02A2064605E74A47A495D2380A3EF)
    Complete name : F: VideoEverybody.Wants.Some.2016.WEB-DL.1080p.ExKinoRay.mkv
    Format : Matroska
    Format version : Version 4/Version 2
    File size : 4.82 GiB
    Duration : 1h 57mn
    Overall bit rate : 5 883 Kbps
    Movie name : Everybody.Wants.Some.2016.WEB-DL.1080p.ExKinoRay
    Encoded date : UTC 2016-06-22 14: 13: 58
    Writing application : mkvmerge v8.3.0 (;Over the Horizon;) 64bit
    Writing library : libebml v1.3.1 + libmatroska v1.4.2
    Video
    ID : 1
    Format : AVC
    Format/Info : Advanced Video Codec
    Format profile : High@L4
    Format settings, CABAC : Yes
    Format settings, ReFrames : 4 frames
    Codec ID : V_MPEG4/ISO/AVC
    Duration : 1h 57mn
    Bit rate : 5 115 Kbps
    Width : 1 916 pixels
    Height : 1 076 pixels
    Display aspect ratio : 16: 9
    Frame rate mode : Constant
    Frame rate : 23.976 (24000/1001) fps
    Color space : YUV
    Chroma subsampling : 4: 2: 0
    Bit depth : 8 bits
    Scan type : Progressive
    Bits/(Pixel*Frame) : 0.103
    Stream size : 4.19 GiB (87%)
    Language : English
    Default : Yes
    Forced : No
    Color range : Limited
    Color primaries : BT.709
    Transfer characteristics : BT.709
    Matrix coefficients : BT.709
    Audio #1
    ID : 2
    Format : AC-3
    Format/Info : Audio Coding 3
    Mode extension : CM (complete main)
    Format settings, Endianness : Big
    Codec ID : A_AC3
    Duration : 1h 56mn
    Bit rate mode : Constant
    Bit rate : 384 Kbps
    Channel(s) : 6 channels
    Channel positions : Front: L C R, Side: L R, LFE
    Sampling rate : 48.0 KHz
    Frame rate : 31.250 fps (1536 spf)
    Compression mode : Lossy
    Delay relative to video : 24s 0ms
    Stream size : 320 MiB (6%)
    Title : DUB iTunes
    Language : Russian
    Default : Yes
    Forced : No
    Audio #2
    ID : 3
    Format : AC-3
    Format/Info : Audio Coding 3
    Mode extension : CM (complete main)
    Format settings, Endianness : Big
    Codec ID : A_AC3
    Duration : 1h 57mn
    Bit rate mode : Constant
    Bit rate : 384 Kbps
    Channel(s) : 6 channels
    Channel positions : Front: L C R, Side: L R, LFE
    Sampling rate : 48.0 KHz
    Frame rate : 31.250 fps (1536 spf)
    Compression mode : Lossy
    Stream size : 322 MiB (7%)
    Language : English
    Default : No
    Forced : No
    Скриншоты


    Онлайн видео Каждому своё


    Размер скачиваемого торрента: 4.82 GB (5176612745 Bytes)

    Каждому своё/Everybody Wants Some!! (2016) WEB-DL 1080p от ExKinoRay | iTunes
    загрузка...
    Рейтинг →
     (голосов: 1, оценка 5/5, голосовать можно 1 раз )

    Другие торренты по теме:



      Комментарии (0):

      Информация

      Информация

        Посетители, находящиеся в группе Гости, не могут оставлять комментарии в данной новости.

        ↓ Меню



        ↓ Опрос

        А Вы добавили сайт в закладки?
        Да
        Не


        Top 10 за неделю (Фильмы)