.
Авторизация | Регистрация
» » Марсианин / The Martian (2015) BDRemux 1080p от ExKinoRay | Расширенная версия | D скачать торрент бесплатно




    Марсианин / The Martian (2015) BDRemux 1080p от ExKinoRay | Расширенная версия | D скачать торрент бесплатно

    Опубликовал: Админ | Дата: 23-06-2016, 05:00 | Просмотров: 68



    Детально о кино
    Русское название: Марсианин
    Русское название в мировом прокате: The Martian
    Создали в: 2015
    Категория жанра: Фантастика, приключения
    Главный режиссер: Ридли Скотт

    Актеры
    Мэтт Дэймон, Джессика Честейн, Чиветел Эджиофор, Кристен Уиг, Джефф Дэниелс, Майкл Пенья, Шон Бин, Кейт Мара, Себастьян Стэн, Аксель Хенни, Бенедикт Вонг, Маккензи Дэвис, Дональд Гловер, Ник Мохаммед, Чен Шу, Эдди Ко, Энцо Чиленти, Джонатан Арис, Граффадд Глин, Наоми Скотт

    Сюжет фильма

    Марсианская миссия Арес-3 в процессе работы была вынуждена экстренно покинуть планету из-за надвигающейся песчаной бури. Инженер и биолог Марк Уотни получил повреждение скафандра во время песчаной бури. Сотрудники миссии, посчитав его погибшим, эвакуировались с планеты, оставив Марка одного. Очнувшись, Уотни обнаруживает, что связь с Землёй отсутствует, но при этом полностью функционирует жилой модуль. Главный герой начинает искать способ продержаться на имеющихся запасах еды, витаминов, воды и воздуха ещё 4 года до прилёта следующей миссии Арес-4.

    Снималось в: США
    Киностудия: 20th Century Fox Film Corporation, Genre Films
    Время просмотра: 02: 31: 20
    Перевод текста: Дублированный
    Файл
    Кодек для видео: MPEG-4
    Качество фильма: BDRemux 1080p
    Информация о видео: 1920x1080, 26, 9 Мbit/s, 23.976 fps
    Информация о звуке:
    Информация о звуке #01: 48 kHz, DTS, 5.1, 768 Kbps | Дублированный | DTS
    Информация о звуке #02: 48 kHz, DTS-HD MA, 7.1, 4968 kbps | Оригинал | DTS-HD MA
    Субтитры: Английские
    Релиз подготовил: Автор релиза:

    Примечание
    Расширенные сцены озвучены студией Omskbird records. + субтитры на азиатскую речь.
    MI
    General
    Unique ID : 238341667642141549007800975322421456905 (0xB34EEF7B0250C822BC10C9361CA4F009)
    Complete name : F: VideoThe.Martian.2015.EXTENDED.BDREMUX.1080p.ExKinoRay.mkv
    Format : Matroska
    Format version : Version 4/Version 2
    File size : 34.5 GiB
    Duration : 2h 31mn
    Overall bit rate mode : Variable
    Overall bit rate : 32.6 Mbps
    Movie name : The.Martian.2015.EXTENDED.BDREMUX.1080p.ExKinoRay
    Encoded date : UTC 2016-06-22 15: 14: 49
    Writing application : mkvmerge v8.3.0 (;Over the Horizon;) 64bit
    Writing library : libebml v1.3.1 + libmatroska v1.4.2
    Video
    ID : 1
    Format : AVC
    Format/Info : Advanced Video Codec
    Format profile : High@L4.1
    Format settings, CABAC : Yes
    Format settings, ReFrames : 4 frames
    Codec ID : V_MPEG4/ISO/AVC
    Duration : 2h 31mn
    Bit rate mode : Variable
    Bit rate : 26.9 Mbps
    Maximum bit rate : 34.0 Mbps
    Width : 1 920 pixels
    Height : 1 080 pixels
    Display aspect ratio : 16: 9
    Frame rate mode : Constant
    Frame rate : 23.976 (24000/1001) fps
    Color space : YUV
    Chroma subsampling : 4: 2: 0
    Bit depth : 8 bits
    Scan type : Progressive
    Bits/(Pixel*Frame) : 0.540
    Stream size : 28.4 GiB (82%)
    Title : The.Martian.2015.EXTENDED.BDREMUX.1080p.ExKinoRay.***selezen***
    Language : English
    Default : No
    Forced : No
    Audio #1
    ID : 2
    Format : DTS
    Format/Info : Digital Theater Systems
    Mode : 16
    Format settings, Endianness : Big
    Codec ID : A_DTS
    Duration : 2h 31mn
    Bit rate mode : Constant
    Bit rate : 768 Kbps
    Channel(s) : 6 channels
    Channel positions : Front: L C R, Side: L R, LFE
    Sampling rate : 48.0 KHz
    Frame rate : 93.750 fps (512 spf)
    Bit depth : 24 bits
    Compression mode : Lossy
    Stream size : 831 MiB (2%)
    Language : Russian
    Default : Yes
    Forced : No
    Audio #2
    ID : 3
    Format : DTS
    Format/Info : Digital Theater Systems
    Format profile : MA/Core
    Mode : 16
    Format settings, Endianness : Big
    Codec ID : A_DTS
    Duration : 2h 31mn
    Bit rate mode : Variable/Constant
    Bit rate : 4 968 Kbps/1 509 Kbps
    Channel(s) : 8 channels/6 channels
    Channel positions : Front: L C R, Side: L R, Back: L R, LFE/Front: L C R, Side: L R, LFE
    Sampling rate : 48.0 KHz
    Frame rate : 93.750 fps (512 spf)
    Bit depth : 24 bits
    Compression mode : Lossless/Lossy
    Stream size : 5.25 GiB (15%)
    Title : Original
    Language : English
    Default : No
    Forced : No
    Text #1
    ID : 4
    Format : UTF-8
    Codec ID : S_TEXT/UTF8
    Codec ID/Info : UTF-8 Plain Text
    Duration : 47s 723ms
    Bit rate : 150 bps
    Count of elements : 12
    Stream size : 899 Bytes (0%)
    Language : Russian
    Default : Yes
    Forced : No
    Text #2
    ID : 5
    Format : UTF-8
    Codec ID : S_TEXT/UTF8
    Codec ID/Info : UTF-8 Plain Text
    Duration : 2h 31mn
    Bit rate : 50 bps
    Count of elements : 1944
    Stream size : 56.1 KiB (0%)
    Language : English
    Default : No
    Forced : No
    Menu
    00: 00: 00.000 : en: Chapter 01
    00: 03: 22.285 : en: Chapter 03
    00: 10: 15.156 : en: Chapter 05
    00: 15: 24.590 : en: Chapter 07
    00: 18: 25.187 : en: Chapter 09
    00: 21: 58.817 : en: Chapter 11
    00: 24: 52.532 : en: Chapter 13
    00: 29: 17.130 : en: Chapter 15
    00: 32: 01.085 : en: Chapter 17
    00: 34: 45.541 : en: Chapter 19
    00: 40: 08.155 : en: Chapter 21
    00: 42: 48.315 : en: Chapter 23
    00: 47: 50.075 : en: Chapter 25
    00: 51: 12.736 : en: Chapter 27
    00: 58: 03.396 : en: Chapter 29
    01: 01: 41.614 : en: Chapter 31
    01: 04: 24.944 : en: Chapter 33
    01: 08: 54.254 : en: Chapter 35
    01: 11: 54.101 : en: Chapter 37
    01: 16: 33.505 : en: Chapter 39
    01: 22: 05.503 : en: Chapter 41
    01: 26: 19.715 : en: Chapter 43
    01: 37: 47.653 : en: Chapter 45
    01: 44: 36.478 : en: Chapter 47
    01: 50: 38.381 : en: Chapter 49
    01: 53: 22.670 : en: Chapter 51
    01: 59: 17.566 : en: Chapter 53
    02: 03: 51.006 : en: Chapter 55
    02: 07: 32.352 : en: Chapter 57
    02: 14: 24.723 : en: Chapter 59
    02: 20: 48.397 : en: Chapter 61
    02: 23: 11.832 : en: Chapter 63
    02: 31: 20.404 : en: Chapter 64
    Скриншоты


    Онлайн видео Марсианин


    Размер скачиваемого торрента: 34.47 GB (37007327837 Bytes)

    Марсианин/The Martian (2015) BDRemux 1080p от ExKinoRay | Расширенная версия | D
    загрузка...
    Рейтинг →
     (голосов: 1, оценка 4/5, голосовать можно 1 раз )

    Другие торренты по теме:

  • Мой любимый марсианин / My Favorite Martian (1999) WEB-DLRip торрент скачать бесплатно
  • Мой любимый марсианин / My Favorite Martian (1999) WEB-DL (720p) от HDClub | D торрент скачать бесплатно
  • Марсианин / The Martian (2015) WEBRip 1080p | Трейлер скачать торрент бесплатно
  • Марсианин / The Martian (2015) DCPRip | 4K | Трейлер скачать торрент бесплатно
  • Марсианин / The Martian (2015) WEBRip | Звук с TS скачать торрент бесплатно
  • Марсианин / The Martian (2015) WEB-DL 1080р | Чистый звук скачать торрент бесплатно
  • Марсианин / The Martian (2015) WEB-DLRip от Scarabey | Чистый звук скачать торрент бесплатно
  • Марсианин / The Martian (2015) WEB-DLRip | КПК | Чистый звук скачать торрент бесплатно


    • Комментарии (0):

      Информация

      Информация

        Посетители, находящиеся в группе Гости, не могут оставлять комментарии в данной новости.

        ↓ Меню



        ↓ Опрос

        А Вы добавили сайт в закладки?
        Да
        Не


        Top 10 за неделю (Фильмы)