.
Авторизация | Регистрация
Хочешь лучшие торренты? Добавь свой email!
Добавить
» » Королева пустыни / Queen of the Desert (2015) BDRip 1080p | P торрент скачать бесплатно




    Королева пустыни / Queen of the Desert (2015) BDRip 1080p | P торрент скачать бесплатно

    Опубликовал: Админ | Дата: 24-06-2016, 05:00 | Просмотров: 61



    Детально о кино
    Русское название: Королева пустыни
    Русское название в мировом прокате: Queen of the Desert
    Создали в: 2015
    Категория жанра: Драма, биография, история
    Главный режиссер: Вернер Херцог

    Актеры
    Джеймс Франко, Николь Кидман, Роберт Паттинсон, Дэмиэн Льюис, Дженни Агаттер, Холли Эрл, Дэвид Колдер, Бет Годдар, Джихад Абду, Марк Льюис Джонс

    Сюжет фильма
    История взаимоотношений британского офицера и путешественника Лоуренса Аравийского и британской же писательницы и исследовательницы Гертруды Белл, которые были дружны многие годы и даже помогли хашимитским династиям укрепиться на троне Иордании и Ирака.


    Снималось в: США, Марокко/Benaroya Pictures, H Films, Raslan Company of America
    Время просмотра: 02: 08: 12
    Перевод текста: Профессиональный (многоголосый, закадровый) Официальный звук
    Файл
    Тип видео: MKV
    Качество фильма: BDRip 1080p
    Информация о видео: MPEG-4 AVC, 8347 kb/s, 1920x804
    Информация о звуке: Russian: AC3, 192 kb/s (2 ch)/English: DTS, 1510 kb/s (6 ch)
    Субтитры: отсутствуют
    MI

    Общее
    Уникальный идентификатор : 205411824963618595496130622798153569015 (0x9A88E0E2F14154DDB1D75D564D22D2F7)
    Полное имя : D: загрузкиKoroleva.pustyni.2015.P.BluRay.1080p.mkv
    Формат : Matroska
    Версия формата : Version 4/Version 2
    Размер файла : 9, 00 Гбайт
    Продолжительность : 2 ч. 8 м.
    Общий поток : 10, 1 Мбит/сек
    Дата кодирования : UTC 2016-06-23 02: 23: 29
    Программа кодирования : mkvmerge v8.3.0 (;Over the Horizon;) 64bit
    Библиотека кодирования : libebml v1.3.1 + libmatroska v1.4.2
    Видео
    Идентификатор : 1
    Формат : AVC
    Формат/Информация : Advanced Video Codec
    Профиль формата : High@L4.1
    Параметр CABAC формата : Да
    Параметр ReFrames формата : 5 кадров
    Идентификатор кодека : V_MPEG4/ISO/AVC
    Продолжительность : 2 ч. 8 м.
    Битрейт : 8149 Кбит/сек
    Ширина : 1920 пикселей
    Высота : 804 пикселя
    Соотношение сторон : 2, 40: 1
    Режим частоты кадров : Постоянный
    Частота кадров : 24, 000 кадра/сек
    Цветовое пространство : YUV
    Субдискретизация насыщенности : 4: 2: 0
    Битовая глубина : 8 бит
    Тип развёртки : Прогрессивная
    Бит/(Пиксели*Кадры) : 0.220
    Размер потока : 7, 30 Гбайт (81%)
    Библиотека кодирования : x264 core 142 r2431+42 c69a006 tMod 8-bit@all X86_64
    Настройки программы : cabac=1/ref=5/deblock=1: -3: -3/analyse=0x3: 0x133/me=umh/subme=11/psy=1/fade_compensate=0.00/psy_rd=0.90: 0.00/mixed_ref=1/me_range=32/chroma_me=1/trellis=2/8x8dct=1/cqm=0/deadzone=21, 11/fast_pskip=0/chroma_qp_offset=-2/threads=60/lookahead_threads=6/sliced_threads=0/nr=0/decimate=0/interlaced=0/bluray_compat=0/constrained_intra=0/fgo=0/bframes=8/b_pyramid=2/b_adapt=2/b_bias=0/direct=3/weightb=1/open_gop=0/weightp=2/keyint=240/keyint_min=24/scenecut=40/intra_refresh=0/rc_lookahead=60/rc=crf/mbtree=0/crf=16.7000/qcomp=0.60/qpmin=0: 0: 0/qpmax=69: 69: 69/qpstep=4/vbv_maxrate=40000/vbv_bufsize=30000/crf_max=0.0/nal_hrd=none/filler=0/ip_ratio=1.40/pb_ratio=1.30/aq=1: 0.90/aq-sensitivity=10.00/aq-factor=1.00: 1.00: 1.00/aq2=0/aq3=0
    Язык : English
    Default : Да
    Forced : Нет
    Аудио #1
    Идентификатор : 2
    Формат : AC-3
    Формат/Информация : Audio Coding 3
    Расширение режима : CM (complete main)
    Параметр Endianness формата : Big
    Идентификатор кодека : A_AC3
    Продолжительность : 2 ч. 8 м.
    Вид битрейта : Постоянный
    Битрейт : 192 Кбит/сек
    Каналы : 2 канала
    Расположение каналов : Front: L R
    Частота : 48, 0 КГц
    Битовая глубина : 16 бит
    Метод сжатия : С потерями
    Размер потока : 176 Мбайт (2%)
    Заголовок : P
    Язык : Russian
    Default : Да
    Forced : Нет
    Аудио #2
    Идентификатор : 3
    Формат : DTS
    Формат/Информация : Digital Theater Systems
    Режим : 16
    Параметр Endianness формата : Big
    Идентификатор кодека : A_DTS
    Продолжительность : 2 ч. 8 м.
    Вид битрейта : Постоянный
    Битрейт : 1509 Кбит/сек
    Каналы : 6 каналов
    Расположение каналов : Front: L C R, Side: L R, LFE
    Частота : 48, 0 КГц
    Битовая глубина : 16 бит
    Метод сжатия : С потерями
    Размер потока : 1, 35 Гбайт (15%)
    Язык : English
    Default : Нет
    Forced : Нет
    Меню
    00: 00: 00.000 : en: 00: 00: 00.000
    00: 11: 11.667 : en: 00: 11: 11.667
    00: 21: 48.167 : en: 00: 21: 48.167
    00: 31: 56.375 : en: 00: 31: 56.375
    00: 41: 19.333 : en: 00: 41: 19.333
    00: 53: 08.917 : en: 00: 53: 08.917
    01: 03: 14.000 : en: 01: 03: 14.000
    01: 15: 03.167 : en: 01: 15: 03.167
    01: 24: 12.417 : en: 01: 24: 12.417
    01: 35: 03.750 : en: 01: 35: 03.750
    01: 45: 43.500 : en: 01: 45: 43.500
    01: 56: 55.000 : en: 01: 56: 55.000
    Скриншоты






    Онлайн видео Королева пустыни


    Размер скачиваемого торрента: 9.00 GB (9664127337 Bytes)

    Королева пустыни/Queen of the Desert (2015) BDRip 1080p | P
    загрузка...
    Рейтинг →
     (голосов: 1, оценка 3/5, голосовать можно 1 раз )

    Другие торренты по теме:

  • Джорджина Хауэлл - Королева пустыни (2015) FB2, EPUB
  • Королева пустыни / Queen of the Desert (2015) HDRip от Twi7ter | L2
  • Королева пустыни / Queen of the Desert (2015) HDRip от torrentfilm | L2
  • Королева пустыни / Queen of the Desert (2015) BDRemux 1080p от ExKinoRay | P


    • Комментарии (0):

      Информация

      Информация

        Посетители, находящиеся в группе Гости, не могут оставлять комментарии в данной новости.

        ↓ Меню



        ↓ Опрос

        А Вы добавили сайт в закладки?
        Да
        Не


        Top 10 за месяц (Фильмы)