.
Авторизация | Регистрация
» » Возможности карьеры / Career Opportunities (1991) WEB-DL 720p | P, A скачать торрент бесплатно




    Возможности карьеры / Career Opportunities (1991) WEB-DL 720p | P, A скачать торрент бесплатно

    Опубликовал: Админ | Дата: 24-06-2016, 05:00 | Просмотров: 55




    Детально о кино
    Русское название: Возможности карьеры/Как делать карьеру
    Русское название в мировом прокате: Career Opportunities
    Создали в: 1991
    Категория жанра: мелодрама, комедия
    Главный режиссер: Брайан Гордон

    Актеры

    Фрэнк Уэйли— Джим Додж, Дженнифер Коннелли— Джози МакКлеллан, Дермонт Малруни— Нестор Пайлн, Киран Малруни— Джил Кинни, Джон М. Джексон— Бад Додж, Дженни O’Хара— Дотти Додж, Ноубл Уиллингэм— Роджер Рой МакКлеллан, Уильям Форсайт— дворник, Джон Кэнди— Си Ди Марш (менеджер магазина Target).

    Сюжет фильма

    Работать ночным сторожем в огромном супермаркете, где можно врубить музыку на всю громкость, наесться всякой всячины от пуза, кока-колы напиться на всю оставшуюся жизнь, а потом в пустом торговом зале до самого утра кататься на роликовых коньках, — может ли быть мечта прекраснее, если тебе лет 16-17 и ты представления не имеешь, чем заняться в ближайшем будущем?
    У Джима эта мечта сбылась: его взяли на работу ночным сторожем в местный супермаркет. Немедленно после закрытия входных дверей и включения сигнализации молодой человек приступил к воплощению в жизнь сокровенных желаний. И скоро обнаружил, что он в магазине не один… незнакомая девушка пробралась в супермаркет, потому как у нее тоже была похожая мечта…

    Снималось в: США
    Киностудия: Hughes Entertainment, Universal Pictures
    Время просмотра: 01: 22: 51
    Перевод текста: Профессиональный многоголосый, Авторский одноголосый, Оригинал
    Файл
    Качество фильма: WEB-DL 720p
    Информация о видео: 1280x542 (2, 35: 1), 23.976 fps, MPEG-4 AVC, ~ 4725 Kbps
    Информация о звуке:
    Информация о звуке #1: AC3, 192 Kbps, 48.0 KHz, 2 ch (Rus)Профессиональный многоголосый, ТК Россия
    Информация о звуке #2: AC3, 192 Kbps, 48.0 KHz, 2 ch (Rus)Авторский одноголосый, А.Михалёв
    Информация о звуке #3: AAC, 48.0 KHz, 2 ch (Eng)Оригинал
    Информация о звуке #4: AC3, 192 Kbps, 48.0 KHz, 2 ch (Eng)Оригинал
    Субтитры: Английские
    Скриншоты


    MediaInfo
    Формат : Matroska
    Версия формата : Version 2
    Размер файла : 2, 73 Гбайт
    Продолжительность : 1 ч. 22 м.
    Общий поток : 4725 Кбит/сек
    Дата кодирования : UTC 2016-06-18 19: 55: 15
    Программа кодирования : mkvmerge v5.4.0 (;Piper;) built on Mar 10 2012 13: 34: 39
    Библиотека кодирования : libebml v1.2.3 + libmatroska v1.3.0
    Видео
    Идентификатор : 1
    Формат : AVC
    Формат/Информация : Advanced Video Codec
    Профиль формата : Main@L3.1
    Параметр CABAC формата : Нет
    Параметр ReFrames формата : 2 кадра
    Идентификатор кодека : V_MPEG4/ISO/AVC
    Продолжительность : 1 ч. 22 м.
    Ширина : 1280 пикселей
    Высота : 542 пикселя
    Соотношение сторон : 2, 35: 1
    Режим частоты кадров : Постоянный
    Частота кадров : 23, 976 кадра/сек
    Цветовое пространство : YUV
    Субдискретизация насыщенности : 4: 2: 0
    Битовая глубина : 8 бит
    Тип развёртки : Прогрессивная
    Заголовок : Career Opportunities/Возможности карьеры/Как делать карьеру (1991)
    Язык : English
    Default : Да
    Forced : Нет
    Основные цвета : BT.709
    Характеристики трансфера : BT.709
    Коэффициенты матрицы : BT.709
    colour_range : Limited
    Аудио #1
    Идентификатор : 2
    Формат : AC-3
    Формат/Информация : Audio Coding 3
    Расширение режима : CM (complete main)
    Параметр Endianness формата : Big
    Идентификатор кодека : A_AC3
    Продолжительность : 1 ч. 22 м.
    Вид битрейта : Постоянный
    Битрейт : 192 Кбит/сек
    Каналы : 2 канала
    Расположение каналов : Front: L R
    Частота : 48, 0 КГц
    Битовая глубина : 16 бит
    Метод сжатия : С потерями
    Размер потока : 114 Мбайт (4%)
    Заголовок : MVO (Russian) ТК Россия
    Язык : Russian
    Default : Да
    Forced : Нет
    Аудио #2
    Идентификатор : 3
    Формат : AC-3
    Формат/Информация : Audio Coding 3
    Профиль формата : Dolby Digital
    Расширение режима : CM (complete main)
    Параметр Endianness формата : Big
    Идентификатор кодека : A_AC3
    Продолжительность : 1 ч. 22 м.
    Вид битрейта : Постоянный
    Битрейт : 192 Кбит/сек
    Каналы : 2 канала
    Расположение каналов : Front: L R
    Частота : 48, 0 КГц
    Битовая глубина : 16 бит
    Метод сжатия : С потерями
    Размер потока : 114 Мбайт (4%)
    Заголовок : AVO (А.Михалёв)
    Язык : Russian
    Default : Нет
    Forced : Нет
    Аудио #3
    Идентификатор : 4
    Формат : AAC
    Формат/Информация : Advanced Audio Codec
    Профиль формата : LC
    Идентификатор кодека : A_AAC
    Продолжительность : 1 ч. 22 м.
    Каналы : 2 канала
    Расположение каналов : Front: L R
    Частота : 48, 0 КГц
    Метод сжатия : С потерями
    Заголовок : Original (English)
    Язык : English
    Default : Нет
    Forced : Нет
    Аудио #4
    Идентификатор : 5
    Формат : AC-3
    Формат/Информация : Audio Coding 3
    Профиль формата : Dolby Digital
    Расширение режима : CM (complete main)
    Параметр Endianness формата : Big
    Идентификатор кодека : A_AC3
    Продолжительность : 1 ч. 22 м.
    Вид битрейта : Постоянный
    Битрейт : 192 Кбит/сек
    Каналы : 2 канала
    Расположение каналов : Front: L R
    Частота : 48, 0 КГц
    Битовая глубина : 16 бит
    Метод сжатия : С потерями
    Размер потока : 114 Мбайт (4%)
    Заголовок : Original (English)
    Язык : English
    Default : Нет
    Forced : Нет
    Текст
    Идентификатор : 6
    Формат : UTF-8
    Идентификатор кодека : S_TEXT/UTF8
    Идентификатор кодека/Информация : UTF-8 Plain Text
    Заголовок : Eng
    Язык : English
    Default : Нет
    Forced : Нет
    Меню
    00: 00: 00.000 : en: An Assassination
    00: 01: 58.000 : en: The Town Liar (Main Titles)
    00: 05: 39.000 : en: Fired Again
    00: 09: 43.000 : en: The Target Team
    00: 13: 43.000 : en: Josie at Home
    00: 16: 41.000 : en: A Limo to Work
    00: 20: 14.000 : en: Are You a Slacker?
    00: 23: 03.000 : en: You;re Locking Me In?
    00: 30: 31.000 : en: Are You Alright?
    00: 40: 19.000 : en: Do You Hear Me?
    00: 48: 14.000 : en: Would You Go Somewhere with Me?
    00: 51: 56.000 : en: Pay Back
    00: 55: 22.000 : en: Late Night Visitors
    00: 59: 53.000 : en: Confrontation
    01: 06: 24.000 : en: The Power of Speech
    01: 08: 39.000 : en: One Good Lookin; Ball of Trouble
    01: 14: 01.000 : en: Turning Tables
    01: 17: 34.000 : en: So Cool
    01: 18: 47.000 : en: End Titles

    Залил: Soroka1989

    Онлайн видео Возможности карьеры


    Размер скачиваемого торрента: 2.73 GB (2936028485 Bytes)

    Возможности карьеры/Career Opportunities (1991) WEB-DL 720p | P, A
    загрузка...
    Рейтинг →
     (голосов: 1, оценка 5/5, голосовать можно 1 раз )

    Другие торренты по теме:

  • Возможности карьеры / Career Opportunities (1991) WEB-DLRip от MegaPeer | P, A скачать торрент бесплатно


    • Комментарии (0):

      Информация

      Информация

        Посетители, находящиеся в группе Гости, не могут оставлять комментарии в данной новости.

        ↓ Меню



        ↓ Опрос

        А Вы добавили сайт в закладки?
        Да
        Не


        Top 10 за неделю (Фильмы)