.
Авторизация | Регистрация
Хочешь лучшие торренты? Добавь свой email!
Добавить
» » Анестезия / Anesthesia (2015) BDRip 720p от ExKinoRay | L2 торрент скачать бесплатно




    Анестезия / Anesthesia (2015) BDRip 720p от ExKinoRay | L2 торрент скачать бесплатно

    Опубликовал: Админ | Дата: 25-06-2016, 05:00 | Просмотров: 60



    Детально о кино
    Русское название: Анестезия
    Русское название в мировом прокате: Anesthesia
    Создали в: 2015
    Категория жанра: Триллер, драма
    Главный режиссер: Тим Блэйк Нельсон

    Актеры
    Сэм Уотерстон, Кристен Стюарт, Кори Столл, Гретхен Мол, Тим Блэйк Нельсон, Гленн Клоуз, К. Тодд Фриман, Джессика Хехт, Бен Конигсберг, Ханна Маркс

    Сюжет фильма

    В результате нападения на профессора философии Колумбийского университета пересекаются жизни нескольких людей…

    Снималось в: США
    Киностудия: Hello Please
    Время просмотра: 01: 29: 49
    Перевод текста: Любительский двухголосый (закадровый) | Parovoz Production
    Файл
    Кодек для видео: MPEG-4
    Качество фильма: BDRip 720p
    Информация о видео: 1280x690, 4180 Kbit/s, 23.976 fps
    Информация о звуке:
    Информация о звуке #01: 48 kHz, AC3, 2.0, 192 Kbps | Любительский двухголосый (закадровый), Parovoz Production |
    Информация о звуке #02: 48 kHz, DTS, 5.1, 1510 kbps | Оригинал |
    Субтитры: Английские
    Релиз подготовил: Автор релиза:

    MI
    General
    Unique ID : 229443220334812671772295721239664252016 (0xAC9D2827D7A1A432B513A66C3DA9D470)
    Complete name : F: VideoAnesthesia.2015.BDRip.720p.ExKinoRay.mkv
    Format : Matroska
    Format version : Version 4/Version 2
    File size : 3.69 GiB
    Duration : 1h 29mn
    Overall bit rate : 5 884 Kbps
    Movie name : Anesthesia.2015.BDRip.720p.ExKinoRay
    Encoded date : UTC 2016-06-24 05: 37: 25
    Writing application : mkvmerge v8.3.0 (;Over the Horizon;) 64bit
    Writing library : libebml v1.3.1 + libmatroska v1.4.2
    Video
    ID : 1
    Format : AVC
    Format/Info : Advanced Video Codec
    Format profile : High@L4.1
    Format settings, CABAC : Yes
    Format settings, ReFrames : 9 frames
    Codec ID : V_MPEG4/ISO/AVC
    Duration : 1h 29mn
    Bit rate : 4 180 Kbps
    Width : 1 280 pixels
    Height : 690 pixels
    Display aspect ratio : 1.85: 1
    Frame rate mode : Constant
    Frame rate : 23.976 (24000/1001) fps
    Color space : YUV
    Chroma subsampling : 4: 2: 0
    Bit depth : 8 bits
    Scan type : Progressive
    Bits/(Pixel*Frame) : 0.197
    Stream size : 2.62 GiB (71%)
    Writing library : x264 core 148 r2692+2+42 c1a827b Yuuki 8-bit@4: 2: 0 X86_64GCC 5.3.0
    Encoding settings : cabac=1/ref=9/deblock=1: -3: -3/analyse=0x3: 0x113/me=umh/subme=11/psy=1/fade_compensate=0.00/psy_rd=1.00: 0.05/mixed_ref=1/me_range=32/chroma_me=1/trellis=2/8x8dct=1/cqm=0/deadzone=21, 11/fast_pskip=0/chroma_qp_offset=-2/threads=22/lookahead_threads=3/sliced_threads=0/nr=0/decimate=1/interlaced=0/bluray_compat=0/constrained_intra=0/fgo=0/bframes=8/b_pyramid=2/b_adapt=2/b_bias=0/direct=3/weightb=1/open_gop=0/weightp=2/keyint=250/keyint_min=23/scenecut=40/intra_refresh=0/rc=crf/mbtree=0/crf=18.4000/qcomp=0.60/qpmin=0: 0: 0/qpmax=69: 69: 69/qpstep=4/ip_ratio=1.40/pb_ratio=1.30/aq=3: 0.90
    Language : English
    Default : Yes
    Forced : No
    Audio #1
    ID : 2
    Format : AC-3
    Format/Info : Audio Coding 3
    Mode extension : CM (complete main)
    Format settings, Endianness : Big
    Codec ID : A_AC3
    Duration : 1h 29mn
    Bit rate mode : Constant
    Bit rate : 192 Kbps
    Channel(s) : 2 channels
    Channel positions : Front: L R
    Sampling rate : 48.0 KHz
    Frame rate : 31.250 fps (1536 spf)
    Compression mode : Lossy
    Stream size : 123 MiB (3%)
    Title : DVO Parovoz Production
    Language : Russian
    Default : Yes
    Forced : No
    Audio #2
    ID : 3
    Format : DTS
    Format/Info : Digital Theater Systems
    Mode : 16
    Format settings, Endianness : Big
    Codec ID : A_DTS
    Duration : 1h 29mn
    Bit rate mode : Constant
    Bit rate : 1 509 Kbps
    Channel(s) : 6 channels
    Channel positions : Front: L C R, Side: L R, LFE
    Sampling rate : 48.0 KHz
    Frame rate : 93.750 fps (512 spf)
    Bit depth : 24 bits
    Compression mode : Lossy
    Stream size : 968 MiB (26%)
    Title : Original
    Language : English
    Default : No
    Forced : No
    Text
    ID : 4
    Format : UTF-8
    Codec ID : S_TEXT/UTF8
    Codec ID/Info : UTF-8 Plain Text
    Duration : 1h 24mn
    Bit rate : 76 bps
    Count of elements : 1846
    Stream size : 47.7 KiB (0%)
    Language : English
    Default : No
    Forced : No
    Menu
    00: 00: 00.000 : en: 00: 00: 00.000
    00: 07: 51.763 : en: 00: 07: 51.763
    00: 17: 41.477 : en: 00: 17: 41.477
    00: 24: 30.636 : en: 00: 24: 30.636
    00: 33: 20.790 : en: 00: 33: 20.790
    00: 42: 28.546 : en: 00: 42: 28.546
    00: 49: 11.073 : en: 00: 49: 11.073
    00: 58: 54.781 : en: 00: 58: 54.781
    01: 04: 42.587 : en: 01: 04: 42.587
    01: 10: 49.162 : en: 01: 10: 49.162
    01: 15: 56.260 : en: 01: 15: 56.260
    01: 24: 49.459 : en: 01: 24: 49.459
    Скриншоты


    Онлайн видео Анестезия


    Размер скачиваемого торрента: 3.69 GB (3956867596 Bytes)

    Анестезия/Anesthesia (2015) BDRip 720p от ExKinoRay | L2
    загрузка...
    Рейтинг →
     (голосов: 1, оценка 5/5, голосовать можно 1 раз )

    Другие торренты по теме:



      Комментарии (0):

      Информация

      Информация

        Посетители, находящиеся в группе Гости, не могут оставлять комментарии в данной новости.

        ↓ Меню



        ↓ Опрос

        А Вы добавили сайт в закладки?
        Да
        Не


        Top 10 за месяц (Фильмы)