.
Авторизация | Регистрация
Хочешь лучшие торренты? Добавь свой email!
Добавить
» » Таланты и поклонники (1955) DVDRip от New-Team торрент скачать бесплатно




    Таланты и поклонники (1955) DVDRip от New-Team торрент скачать бесплатно

    Опубликовал: Админ | Дата: 26-06-2016, 05:00 | Просмотров: 89



    Снималось в: СССР
    Создали в: Ленфильм
    Категория жанра: драма
    Создали в: 1955
    Время просмотра: 01: 23: 54
    Перевод текста: Не требуется
    Субтитры подготовлены: нет
    Оригинальная аудиодорожка: русский
    Главный режиссер: Андрей Апсолон, Борис Дмоховский

    Актеры

    Татьяна Ленникова, Павел Кадочников, Екатерина Александровская, Борис Смирнов, Николай Комиссаров, Евгений Лебедев, Константин Скоробогатов, Тамара Алёшина, Владимир Воронов, Геннадий Мичурин, Валентина Савельева, Николай Трофимов...
    Полный список актёров
    Описание:
    По одноименной пьесе А.Н.Островского.
    Талантливая актриса провинциального театра Негина должна покинуть сцену, так как чистота ее поведения несовместима с театральными нравами. Она любит студента Мелузова (Павел Кадочников), и оба мечтают о честной, трудовой жизни.
    Суровая действительность разрушает ее планы. Прирожденная актриса, Негина не в силах оставить театр, и для того, чтобы служить искусству, она вынуждена, предав идеалы, продать себя. После мучительных сомнений актриса становится любовницей богатого помещика Великатова и уезжает с ним.
    Мелузов, оставшись в одиночестве, гневно обличает развращенных поклонников талантов, хозяев города.



    Источник: DVD5 R5
    Качество фильма видео: DVDRip
    Тип видео видео: AVI
    Информация о видео: 640x480 (4: 3), 25 fps, XviD ~ 1099 kbps avg, 0.143 bit/pixel
    Информация о звуке: 48 kHz, MP3 2.0, 128 kbps
    Раздача от:
    MediaInfo

    Общее
    Полное имя : Talanty.i.poklonniki.1955.DVDRip-745_New-team_by_AVP_Studio.avi
    Формат : AVI
    Формат/Информация : Audio Video Interleave
    Размер файла : 742 Мбайт
    Продолжительность : 1 ч. 23 м.
    Общий поток : 1237 Кбит/сек
    Программа кодирования : VirtualDubMod 1.5.10.3 | www.virtualdub-fr.org || (build 2550/release)
    Библиотека кодирования : VirtualDubMod build 2550/release
    Видео
    Идентификатор : 0
    Формат : MPEG-4 Visual
    Профиль формата : Advanced Simple@L5
    Параметр BVOP формата : 1
    Параметр QPel формата : Нет
    Параметр GMC формата : Без точки перехода
    Параметр матрицы формата : Выборочная
    Идентификатор кодека : XVID
    Идентификатор кодека/Подсказка : XviD
    Продолжительность : 1 ч. 23 м.
    Битрейт : 1099 Кбит/сек
    Ширина : 640 пикселей
    Высота : 480 пикселей
    Соотношение сторон : 4: 3
    Частота кадров : 25, 000 кадров/сек
    Цветовое пространство : YUV
    Субдискретизация насыщенности : 4: 2: 0
    Битовая глубина : 8 бит
    Тип развёртки : Прогрессивная
    Метод сжатия : С потерями
    Бит/(Пиксели*Кадры) : 0.143
    Размер потока : 660 Мбайт (89%)
    Библиотека кодирования : XviD 1.2.1 (UTC 2008-12-04)
    Аудио
    Идентификатор : 1
    Формат : MPEG Audio
    Версия формата : Version 1
    Профиль формата : Layer 3
    Идентификатор кодека : 55
    Идентификатор кодека/Подсказка : MP3
    Продолжительность : 1 ч. 23 м.
    Вид битрейта : Постоянный
    Битрейт : 128 Кбит/сек
    Каналы : 2 канала
    Частота : 48, 0 КГц
    Метод сжатия : С потерями
    Размер потока : 76, 8 Мбайт (10%)
    Выравнивание : Соединение по промежуткам
    Продолжительность промежутка : 40 мс. (1, 00 видеокадр)
    Время предзагрузки промежутка : 504 мс.
    Библиотека кодирования : LAME3.99r
    Залил: AVPStudio

    Онлайн видео Таланты и поклонники (1955) DVDRip от New


    Размер скачиваемого торрента: 742.38 MB (778436608 Bytes)


    Таланты и поклонники (1955) DVDRip от New-Team
    загрузка...
    Рейтинг →
     (голосов: 1, оценка 3/5, голосовать можно 1 раз )

    Другие торренты по теме:

  • Таланты и поклонники / 1955 / РУ / DVD-5


    • Комментарии (0):

      Информация

      Информация

        Посетители, находящиеся в группе Гости, не могут оставлять комментарии в данной новости.

        ↓ Меню



        ↓ Опрос

        А Вы добавили сайт в закладки?
        Да
        Не


        Top 10 за месяц (Фильмы)