.
Авторизация | Регистрация
» » Преступник / Criminal (2016) WEBRip 2160p от ExKinoRay | Line скачать торрент бесплатно




    Преступник / Criminal (2016) WEBRip 2160p от ExKinoRay | Line скачать торрент бесплатно

    Опубликовал: Админ | Дата: 26-06-2016, 05:00 | Просмотров: 63



    Детально о кино
    Русское название: Преступник
    Русское название в мировом прокате: Criminal
    Создали в: 2016
    Категория жанра: Фантастика, боевик, триллер, драма, криминал, детектив
    Главный режиссер: Ариэль Вромен

    Актеры
    Кевин Костнер, Гэри Олдман, Томми Ли Джонс, Райан Рейнольдс, Элис Ив, Галь Гадот, Хорди Молья, Майкл Питт, Амори Ноласко, Антье Трауэ, Скотт Эдкинс, Лара Дэкаро, Фредди Бош, Эммануэль Имани, Гарри Хэппл, Даг Кокл, Колин Сэлмон, Стив Николсон, Сопе Дирису, Джизелла Маренго

    Сюжет фильма

    В последней отчаянной попытке остановить катастрофу мирового масштаба генетики осуществляют невероятную операцию по вживлению воспоминаний и умений погибшего оперативника ЦРУ в тело опасного заключенного с надеждой, что тот доведет до конца прерванную миссию агента.

    Снималось в: Великобритания, США
    Киностудия: BenderSpink, Campbell Grobman Films, Lionsgate
    Время просмотра: 01: 52: 49
    Перевод текста: Дублированный | Чистый звук
    Файл
    Кодек для видео: MPEG-4
    Качество фильма: WEBRip 2160p
    Информация о видео: 3840x1600, 8002 Kbit/s, 24.000 fps
    Информация о звуке:
    Информация о звуке: 48 kHz, AC3, 2.0, 192 Kbps | Дублированный, Чистый звук |
    Субтитры: Корейские (вшитые)
    Релиз подготовил: Автор релиза:


    MI
    General
    Unique ID : 197285623764261008167852620300358826639 (0x946BD43BFF0B9302B2D21D93BF68BA8F)
    Complete name : F: VideoCriminal.2016.WEB-DL.2160p.ExKinoRay.mkv
    Format : Matroska
    Format version : Version 4/Version 2
    File size : 6.46 GiB
    Duration : 1h 52mn
    Overall bit rate mode : Variable
    Overall bit rate : 8 195 Kbps
    Movie name : Criminal.2016.WEB-DL.2160p.ExKinoRay
    Encoded date : UTC 2016-06-25 21: 32: 27
    Writing application : mkvmerge v8.3.0 (;Over the Horizon;) 64bit
    Writing library : libebml v1.3.1 + libmatroska v1.4.2
    Video
    ID : 1
    Format : AVC
    Format/Info : Advanced Video Codec
    Format profile : High@L5.1
    Format settings, CABAC : Yes
    Format settings, ReFrames : 4 frames
    Codec ID : V_MPEG4/ISO/AVC
    Duration : 1h 52mn
    Bit rate mode : Variable
    Bit rate : 8 002 Kbps
    Maximum bit rate : 40.0 Mbps
    Width : 3 840 pixels
    Height : 1 600 pixels
    Display aspect ratio : 2.40: 1
    Frame rate mode : Constant
    Frame rate : 24.000 fps
    Color space : YUV
    Chroma subsampling : 4: 2: 0
    Bit depth : 8 bits
    Scan type : Progressive
    Bits/(Pixel*Frame) : 0.054
    Stream size : 6.31 GiB (98%)
    Language : English
    Default : Yes
    Forced : No
    Audio
    ID : 2
    Format : AC-3
    Format/Info : Audio Coding 3
    Mode extension : CM (complete main)
    Format settings, Endianness : Big
    Codec ID : A_AC3
    Duration : 1h 52mn
    Bit rate mode : Constant
    Bit rate : 192 Kbps
    Channel(s) : 2 channels
    Channel positions : Front: L R
    Sampling rate : 48.0 KHz
    Frame rate : 31.250 fps (1536 spf)
    Compression mode : Lossy
    Delay relative to video : 20s 150ms
    Stream size : 154 MiB (2%)
    Title : DUB Line
    Language : Russian
    Default : Yes
    Forced : No
    Скриншоты



    Онлайн видео Преступник


    Размер скачиваемого торрента: 6.46 GB (6937034448 Bytes)

    Преступник/Criminal (2016) WEBRip 2160p от ExKinoRay | Line
    загрузка...
    Рейтинг →
     (голосов: 1, оценка 5/5, голосовать можно 1 раз )

    Другие торренты по теме:

  • Мыслить как преступник / Criminal Minds (2012) WEB-DLRip | Fox Crime торрент скачать бесплатно
  • Мыслить как преступник / Criminal Minds (2010-2011) WEB-DLRip | Fox Crime торрент скачать бесплатно
  • Мыслить как преступник / Criminal Minds (2005-2012) WEB-DLRip | P скачать через торрент бесплатно
  • Мыслить как преступник / Criminal Minds (2013) WEB-DLRip | Fox скачать через торрент бесплатно
  • Мыслить как преступник / Criminal Minds (2013) WEB-DLRip | Fox торрент скачать бесплатно
  • Мыслить как преступник / Criminal Minds (2005-2014) WEB-DLRip | P торрент скачать бесплатно
  • Мыслить как преступник / Criminal Minds (2014) WEB-DL 720p от MediaClub | P | Fox скачать через торрент бесплатно
  • Мыслить как преступник / Criminal Minds (2014) WEB-DLRip от MediaClub | P | Fox торрент скачать бесплатно


    • Комментарии (0):

      Информация

      Информация

        Посетители, находящиеся в группе Гости, не могут оставлять комментарии в данной новости.

        ↓ Меню



        ↓ Опрос

        А Вы добавили сайт в закладки?
        Да
        Не


        Top 10 за неделю (Фильмы)