.
Авторизация | Регистрация
» » К новому берегу (1955) VHSRip от New-Team скачать торрент бесплатно




    К новому берегу (1955) VHSRip от New-Team скачать торрент бесплатно

    Опубликовал: Админ | Дата: 27-06-2016, 05:00 | Просмотров: 19



    Снималось в: СССР
    Создали в: К/ст им. Горького, Рижская к/ст
    Категория жанра: драма
    Создали в: 1955
    Время просмотра: 01: 48: 45
    Перевод текста: Не требуется
    Субтитры подготовлены: нет
    Оригинальная аудиодорожка: русский
    Главный режиссер: Леонид Луков

    Актеры

    Жанис Приекулис, Велта Лине, Лидия Фреймане, Янис Осис, Юрий Юровский, Артурс Димитерс, Байба Индриксоне, Олга Круминя, Харийс Лиепиньш, Улдис Лиелдидж, Янис Грантиньш, Луйс Шмитс, Петерис Цепурниекc, Болеславс Ружс, Юрис Леяскалнс, Элза Баруне, Виктор Коваль, Леня Беляев...
    Полный список актёров
    Описание:
    Действие разворачивается в 1920-е годы и заканчивается в 1950-х. В центре фильма — судьба рядовой латышской семьи Лидумов. Драматично складывается она для каждого из членов этой семьи. Батрак Ян Лидум по доносу кулака Тауриня брошен за непокорность и подстрекательские речи в тюрьму. Его жена Ольга умирает от чахотки, а их пятилетний сын Айвор продаётся с торгов на сиротском аукционе; его покупает кулак Рейнис Тауринь. Сестра Яна Лидума, бывшая батрачка Ильза, всю свою энергию отдает революционной борьбе, и в своём сыне Артуре она стремится воспитать достойного помощника. Таким и застает их Ян Лидум, выйдя на свободу после 12 лет тюрьмы.



    Источник: VHS
    Качество фильма видео: VHSRip
    Тип видео видео: AVI
    Информация о видео: 576x432 (4: 3), 25 fps, XviD ~ 821 kbps avg, 0.132 bit/pixel
    Информация о звуке: 48 kHz, MP3 2.0, 128 kbps
    Раздача от:
    MediaInfo

    Общее
    Полное имя : K.novomu.beregu.VHSRip-745_New-team_by_AVP_Studio.avi
    Формат : AVI
    Формат/Информация : Audio Video Interleave
    Размер файла : 746 Мбайт
    Продолжительность : 1 ч. 48 м.
    Общий поток : 958 Кбит/сек
    Программа кодирования : VirtualDubModRus 1.5.10.2 (build 2542/release)
    Библиотека кодирования : VirtualDubMod build 2542/release
    Видео
    Идентификатор : 0
    Формат : MPEG-4 Visual
    Профиль формата : Advanced Simple@L5
    Параметр BVOP формата : 1
    Параметр QPel формата : Нет
    Параметр GMC формата : Без точки перехода
    Параметр матрицы формата : Выборочная
    Идентификатор кодека : XVID
    Идентификатор кодека/Подсказка : XviD
    Продолжительность : 1 ч. 48 м.
    Битрейт : 821 Кбит/сек
    Ширина : 576 пикселей
    Высота : 432 пикселя
    Соотношение сторон : 4: 3
    Частота кадров : 25, 000 кадров/сек
    Цветовое пространство : YUV
    Субдискретизация насыщенности : 4: 2: 0
    Битовая глубина : 8 бит
    Тип развёртки : Прогрессивная
    Метод сжатия : С потерями
    Бит/(Пиксели*Кадры) : 0.132
    Размер потока : 638 Мбайт (86%)
    Библиотека кодирования : XviD 1.2.1 (UTC 2008-12-04)
    Аудио
    Идентификатор : 1
    Формат : MPEG Audio
    Версия формата : Version 1
    Профиль формата : Layer 3
    Идентификатор кодека : 55
    Идентификатор кодека/Подсказка : MP3
    Продолжительность : 1 ч. 48 м.
    Вид битрейта : Постоянный
    Битрейт : 128 Кбит/сек
    Каналы : 2 канала
    Частота : 48, 0 КГц
    Метод сжатия : С потерями
    Размер потока : 99, 6 Мбайт (13%)
    Выравнивание : Соединение по промежуткам
    Продолжительность промежутка : 40 мс. (1, 00 видеокадр)
    Время предзагрузки промежутка : 504 мс.
    Библиотека кодирования : LAME3.99r
    Залил: AVPStudio

    Онлайн видео К новому берегу (1955) VHSRip от New


    Размер скачиваемого торрента: 745.57 MB (781783040 Bytes)


    К новому берегу (1955) VHSRip от New-Team
    загрузка...
    Рейтинг →
     (голосов: 1, оценка 5/5, голосовать можно 1 раз )

    Другие торренты по теме:



      Комментарии (0):

      Информация

      Информация

        Посетители, находящиеся в группе Гости, не могут оставлять комментарии в данной новости.

        ↓ Меню



        ↓ Опрос

        А Вы добавили сайт в закладки?
        Да
        Не


        Top 10 за неделю (Фильмы)