.
Авторизация | Регистрация
» » На гребне волны / Point Break (2015) BDRip 720p от ExKinoRay | Лицензия скачать торрент бесплатно




    На гребне волны / Point Break (2015) BDRip 720p от ExKinoRay | Лицензия скачать торрент бесплатно

    Опубликовал: Админ | Дата: 27-06-2016, 05:00 | Просмотров: 37



    Детально о кино
    Русское название: На гребне волны
    Русское название в мировом прокате: Point Break
    Создали в: 2015
    Категория жанра: Боевик, триллер, криминал
    Главный режиссер: Эриксон Кор

    Актеры
    Люк Брейси, Эдгар Рамирес, Тереза Палмер, Макс Тириот, Рэй Уинстон, Тобиас Зантельман, Джеймс ЛеГрос, Делрой Линдо, Боджесси Кристофер, Клеменс Шик, Матиас Варела, Николай Кински, Дороти Киршнер, Джуда Льюис, Джеймс Батлер, Глайнис Барбер, Баярдо Де Мургуйя, Дон Уоллес, Александр Яссин, Джо Тодтлинг

    Сюжет фильма

    Джонни — молодой агент ФБР, специализирующийся на работе под прикрытием. Он не раз выходил из самых сложных ситуаций, всегда доделывая свою работу до конца. Его очередным заданием становится проникновение в банду воров. Однако эти люди не обычные грабители: их главным отличием от остальных является увлечение экстремальными видами спорта. Свои умения они используют при каждом новом ограблении, и стать частью их команды очень непросто. Чтобы войти в банду и остановить преступников, Джонни придется доказать, что он такой же как они, а для этого ему не раз предстоит рискнуть собственной жизнью.

    Снималось в: Германия, Китай, США
    Киностудия: Alcon Entertainment, DMG Entertainment, Ehman Productions, Studio Babelsberg, Warner Bros. Pictures
    Время просмотра: 01: 53: 55
    Перевод текста: Дублированный | Лицензия Blu-Ray CEE
    Файл
    Кодек для видео: MPEG-4
    Качество фильма: BDRip 720p
    Информация о видео: 1280x534, 6724 Kbit/s, 23.976 fps
    Информация о звуке:
    Информация о звуке #01: 48 kHz, AC3, 5.1, 640 Kbps | Дублированный, Лицензия Blu-Ray CEE |
    Информация о звуке #02: 48 kHz, DTS, 5.1, 1510 kbps | Оригинал |
    Субтитры: Русские (forced, full), английские (srt, SDH)
    Релиз подготовил: Автор релиза:

    MI
    General
    Unique ID : 188541147183013739474170289600341529727 (0x8DD7B4409C77DA6FB276CD529D54D47F)
    Complete name : F: VideoPoint.Break.2015.BDRip.720p.ExKinoRay.mkv
    Format : Matroska
    Format version : Version 4/Version 2
    File size : 7.06 GiB
    Duration : 1h 53mn
    Overall bit rate : 8 876 Kbps
    Movie name : Point.Break.2015.BDRip.720p.ExKinoRay
    Encoded date : UTC 2016-06-26 02: 56: 08
    Writing application : mkvmerge v8.3.0 (;Over the Horizon;) 64bit
    Writing library : libebml v1.3.1 + libmatroska v1.4.2
    Video
    ID : 1
    Format : AVC
    Format/Info : Advanced Video Codec
    Format profile : High@L4.1
    Format settings, CABAC : Yes
    Format settings, ReFrames : 12 frames
    Codec ID : V_MPEG4/ISO/AVC
    Duration : 1h 53mn
    Bit rate : 6 724 Kbps
    Width : 1 280 pixels
    Height : 534 pixels
    Display aspect ratio : 2.40: 1
    Frame rate mode : Constant
    Frame rate : 23.976 (24000/1001) fps
    Color space : YUV
    Chroma subsampling : 4: 2: 0
    Bit depth : 8 bits
    Scan type : Progressive
    Bits/(Pixel*Frame) : 0.410
    Stream size : 5.35 GiB (76%)
    Writing library : x264 core 142 r2431+42 c69a006 tMod 8-bit@all X86_64
    Encoding settings : cabac=1/ref=12/deblock=1: -3: -3/analyse=0x3: 0x133/me=umh/subme=11/psy=1/fade_compensate=0.00/psy_rd=1.05: 1.00/mixed_ref=1/me_range=32/chroma_me=1/trellis=2/8x8dct=1/cqm=0/deadzone=21, 11/fast_pskip=0/chroma_qp_offset=-4/threads=12/lookahead_threads=2/sliced_threads=0/nr=0/decimate=0/interlaced=0/bluray_compat=0/constrained_intra=0/fgo=0/bframes=8/b_pyramid=2/b_adapt=2/b_bias=0/direct=3/weightb=1/open_gop=0/weightp=2/keyint=240/keyint_min=23/scenecut=40/intra_refresh=0/rc_lookahead=60/rc=crf/mbtree=0/crf=17.3000/qcomp=0.60/qpmin=0: 0: 0/qpmax=69: 69: 69/qpstep=4/vbv_maxrate=40000/vbv_bufsize=30000/crf_max=0.0/nal_hrd=none/filler=0/ip_ratio=1.40/pb_ratio=1.30/aq=1: 1.00/aq-sensitivity=10.00/aq-factor=1.00: 1.00: 1.00/aq2=0/aq3=0
    Language : English
    Default : Yes
    Forced : No
    Audio #1
    ID : 2
    Format : AC-3
    Format/Info : Audio Coding 3
    Mode extension : CM (complete main)
    Format settings, Endianness : Big
    Codec ID : A_AC3
    Duration : 1h 53mn
    Bit rate mode : Constant
    Bit rate : 640 Kbps
    Channel(s) : 6 channels
    Channel positions : Front: L C R, Side: L R, LFE
    Sampling rate : 48.0 KHz
    Frame rate : 31.250 fps (1536 spf)
    Compression mode : Lossy
    Stream size : 521 MiB (7%)
    Title : DUB Blu-Ray CEE
    Language : Russian
    Default : Yes
    Forced : No
    Audio #2
    ID : 3
    Format : DTS
    Format/Info : Digital Theater Systems
    Mode : 16
    Format settings, Endianness : Big
    Codec ID : A_DTS
    Duration : 1h 53mn
    Bit rate mode : Constant
    Bit rate : 1 509 Kbps
    Channel(s) : 6 channels
    Channel positions : Front: L C R, Side: L R, LFE
    Sampling rate : 48.0 KHz
    Frame rate : 93.750 fps (512 spf)
    Bit depth : 24 bits
    Compression mode : Lossy
    Stream size : 1.20 GiB (17%)
    Title : Original
    Language : English
    Default : No
    Forced : No
    Text #1
    ID : 4
    Format : UTF-8
    Codec ID : S_TEXT/UTF8
    Codec ID/Info : UTF-8 Plain Text
    Duration : 1h 49mn
    Bit rate : 1 bps
    Count of elements : 30
    Stream size : 1.27 KiB (0%)
    Title : Forced
    Language : Russian
    Default : Yes
    Forced : No
    Text #2
    ID : 5
    Format : UTF-8
    Codec ID : S_TEXT/UTF8
    Codec ID/Info : UTF-8 Plain Text
    Duration : 1h 52mn
    Bit rate : 51 bps
    Count of elements : 779
    Stream size : 42.8 KiB (0%)
    Title : Full
    Language : Russian
    Default : No
    Forced : No
    Text #3
    ID : 6
    Format : UTF-8
    Codec ID : S_TEXT/UTF8
    Codec ID/Info : UTF-8 Plain Text
    Duration : 1h 52mn
    Bit rate : 32 bps
    Count of elements : 839
    Stream size : 26.7 KiB (0%)
    Title : Full
    Language : English
    Default : No
    Forced : No
    Text #4
    ID : 7
    Format : UTF-8
    Codec ID : S_TEXT/UTF8
    Codec ID/Info : UTF-8 Plain Text
    Duration : 1h 52mn
    Bit rate : 34 bps
    Count of elements : 923
    Stream size : 28.6 KiB (0%)
    Title : SDH
    Language : English
    Default : No
    Forced : No
    Menu #1
    00: 00: 00.000 : en: 00: 00: 00.000
    00: 10: 11.820 : en: 00: 10: 11.820
    00: 21: 05.139 : en: 00: 21: 05.139
    00: 29: 20.926 : en: 00: 29: 20.926
    00: 42: 44.896 : en: 00: 42: 44.896
    00: 50: 05.794 : en: 00: 50: 05.794
    01: 03: 19.462 : en: 01: 03: 19.462
    01: 12: 43.943 : en: 01: 12: 43.943
    01: 20: 40.419 : en: 01: 20: 40.419
    01: 27: 14.521 : en: 01: 27: 14.521
    01: 32: 44.350 : en: 01: 32: 44.350
    01: 39: 02.603 : en: 01: 39: 02.603
    Menu #2
    00: 00: 00.054 : en: 00: 00: 00.054
    Скриншоты


    Онлайн видео На гребне волны


    Размер скачиваемого торрента: 7.06 GB (7578597780 Bytes)

    На гребне волны/Point Break (2015) BDRip 720p от ExKinoRay | Лицензия
    загрузка...
    Рейтинг →
     (голосов: 1, оценка 3/5, голосовать можно 1 раз )

    Другие торренты по теме:

  • На гребне волны / Point Break (1991) BDRip 1080p торрент скачать бесплатно
  • OST - На гребне волны / Point Break (1991) MP3 торрент скачать бесплатно
  • На гребне волны / Point Break (1991) Blu-ray скачать через торрент бесплатно
  • На гребне волны / Point Break (1991) BDRip 1080p от denis 100 | D,P,P2 торрент скачать бесплатно
  • На гребне волны / Point Break (1991) DVDRip от MediaClub | КПК скачать через торрент бесплатно
  • На гребне волны / Point Break (1991) BDRip-AVC от 0ptimus | D, P, P2, A торрент скачать бесплатно
  • На гребне волны (2015) скачать торрент бесплатно
  • На гребне волны (2015) скачать торрент бесплатно


    • Комментарии (0):

      Информация

      Информация

        Посетители, находящиеся в группе Гости, не могут оставлять комментарии в данной новости.

        ↓ Меню



        ↓ Опрос

        А Вы добавили сайт в закладки?
        Да
        Не


        Top 10 за неделю (Фильмы)