.
Авторизация | Регистрация
Хочешь лучшие торренты? Добавь свой email!
Добавить
» » Волшебники Забытого королевства / Wizards of the Lost Kingdom (1985) VHSRip-AVC | L1 торрент скачать бесплатно




    Волшебники Забытого королевства / Wizards of the Lost Kingdom (1985) VHSRip-AVC | L1 торрент скачать бесплатно

    Опубликовал: Админ | Дата: 27-06-2016, 05:00 | Просмотров: 48



    Детально о кино
    Русское название: Волшебники Забытого королевства/Колдуны потерянного королевства
    Русское название в мировом прокате: Wizards of the Lost Kingdom
    Создали в: 1985
    Категория жанра: фэнтези, боевик, приключения, семейный
    Главный режиссер: Эктор Оливера

    Актеры
    Бо Свенсон, Видал Петерсон, Том Кристофер, Барбара Сток, Мария Сокас, Долорес Майклс, Эдгардо Морейра, Августо Ларрета, Майкл Фонтейн

    Сюжет фильма

    Саймон — сын короля и мага, вынужден был бежать из своих земель, когда королевство захватывает злой колдун Шарка. Обученный искусству магии, Саймон должен найти Меч власти и Магическое кольцо, с помощью которых есть шанс одолеть волшебника, убившего его отца, и вернуть утраченное королевство. Помогут ему в этом его верный друг Голфэкс, странствующий воин Кор и лесной волшебник Хурла.

    Создали в: Аргентина, США/Trinity Productions
    Время просмотра: 01: 15: 14
    Перевод текста: любительский (одноголосый закадровый)
    Файл
    Качество фильма: VHSRip-AVC
    Тип видео: MKV
    Информация о видео: MPEG-4 AVC, 720x480 (4: 3), 29.970 fps, 2443 kbps, 0.236 bit/pixel
    Информация о звуке #1: русский, AC3 2.0, 48 kHz, 192 kbps
    Информация о звуке #2: английский, AC3 2.0, 48 kHz, 192 kbps
    MediaInfo
    Формат : Matroska
    Версия формата : Version 4/Version 2
    Размер файла : 1, 52 Гбайт
    Продолжительность : 1 ч. 15 м.
    Общий поток : 2884 Кбит/сек
    Дата кодирования : UTC 2016-05-22 19: 09: 03
    Программа кодирования : mkvmerge v7.9.0 (;Birds;) 64bit
    Библиотека кодирования : libebml v1.3.1 + libmatroska v1.4.2
    Видео
    Идентификатор : 1
    Формат : AVC
    Формат/Информация : Advanced Video Codec
    Профиль формата : Main@L3
    Параметр CABAC формата : Да
    Параметр ReFrames формата : 3 кадра
    Идентификатор кодека : V_MPEG4/ISO/AVC
    Продолжительность : 1 ч. 15 м.
    Битрейт : 2443 Кбит/сек
    Ширина : 720 пикселей
    Высота : 480 пикселей
    Соотношение сторон : 4: 3
    Соотношение сторон в оригинале : 4: 3
    Режим частоты кадров : Постоянный
    Частота кадров : 29, 970 кадров/сек
    Стандарт вещания : NTSC
    Цветовое пространство : YUV
    Субдискретизация насыщенности : 4: 2: 0
    Битовая глубина : 8 бит
    Тип развёртки : Прогрессивная
    Бит/(Пиксели*Кадры) : 0.236
    Размер потока : 1, 28 Гбайт (85%)
    Язык : English
    Default : Да
    Forced : Нет
    Аудио #1
    Идентификатор : 2
    Формат : AC-3
    Формат/Информация : Audio Coding 3
    Расширение режима : CM (complete main)
    Параметр Endianness формата : Big
    Идентификатор кодека : A_AC3
    Продолжительность : 1 ч. 15 м.
    Вид битрейта : Постоянный
    Битрейт : 192 Кбит/сек
    Каналы : 2 канала
    Расположение каналов : Front: L R
    Частота : 48, 0 КГц
    Метод сжатия : С потерями
    Размер потока : 103 Мбайт (7%)
    Язык : Russian
    Default : Да
    Forced : Нет
    Аудио #2
    Идентификатор : 3
    Формат : AC-3
    Формат/Информация : Audio Coding 3
    Расширение режима : CM (complete main)
    Параметр Endianness формата : Big
    Идентификатор кодека : A_AC3
    Продолжительность : 1 ч. 15 м.
    Вид битрейта : Постоянный
    Битрейт : 192 Кбит/сек
    Каналы : 2 канала
    Расположение каналов : Front: L R
    Частота : 48, 0 КГц
    Метод сжатия : С потерями
    Размер потока : 103 Мбайт (7%)
    Язык : English
    Default : Нет
    Forced : Нет
    Скриншоты

    Залил: makkaronni

    Онлайн видео Волшебники Забытого королевства


    Размер скачиваемого торрента: 1.52 GB (1627734824 Bytes)

    Волшебники Забытого королевства/Wizards of the Lost Kingdom (1985) VHSRip-AVC | L1
    загрузка...
    Рейтинг →
     (голосов: 1, оценка 3/5, голосовать можно 1 раз )

    Другие торренты по теме:



      Комментарии (0):

      Информация

      Информация

        Посетители, находящиеся в группе Гости, не могут оставлять комментарии в данной новости.

        ↓ Меню



        ↓ Опрос

        А Вы добавили сайт в закладки?
        Да
        Не


        Top 10 за месяц (Фильмы)