.
Авторизация | Регистрация
Хочешь лучшие торренты? Добавь свой email!
Добавить
» » Челюсти 3 / Jaws 3-D (1983) BDRip 720p | P торрент скачать бесплатно




    Челюсти 3 / Jaws 3-D (1983) BDRip 720p | P торрент скачать бесплатно

    Опубликовал: Админ | Дата: 28-06-2016, 05:00 | Просмотров: 50



    Создали в: США, Incentive Filmed Entertainment, Next Films, Sierra Pictures (III), Silverwood Films
    Категория жанра: Ужасы, Триллер, Приключения
    Главный режиссер: Джо Элвес
    Актеры: Дэннис Куэйд, Бесс Армстронг, Луис Госсетт мл., Саймон МакКоркиндэйл, Джон Путч, Лиа Томпсон

    Описание фильма

    На восточном побережье миллионер Кевин Бушар устроил грандиозный морской парк развлечений с воднолыжными акробатами, подводным царством, экскурсиями на катерах и т.д. В это же время сотрудники морского исследовательского центра, расположенного неподалеку, обнаруживают тело одного из ныряльщиков, погибшего от зубов гигантской белой акулы. Трудно поверить, но у этого монстра к ученым свой счет, - акула мстит за своего погибшего детеныша...
    Время просмотра: 01: 38: 21
    Перевод текста: Профессиональный (многоголосый, закадровый)
    Субтитры: Отсутствуют
    Качество фильма: BDRip 720p
    Информация о видео: AVC, 1280x536 (2.35: 1), 23.976 fps, 5 599 Kbps (0.340 bit/pixel)
    Информация о звуке: DTS, 48.0 KHz, 6 ch, 755 Kbps, CBR (Russian)
    Mediainfo:

    Формат : Matroska
    Версия формата : Version 2
    Размер файла : 4, 37 Гбайт
    Продолжительность : 1 ч. 38 м.
    Общий поток : 6364 Кбит/сек
    Дата кодирования : UTC 2016-06-27 14: 39: 23
    Программа кодирования : mkvmerge v5.3.0 (;I could have danced;) built on Feb 9 2012 10: 38: 07
    Библиотека кодирования : libebml v1.2.3 + libmatroska v1.3.0
    Attachment : Yes
    Видео
    Идентификатор : 1
    Формат : AVC
    Формат/Информация : Advanced Video Codec
    Профиль формата : High@L4.1
    Параметр CABAC формата : Да
    Параметр ReFrames формата : 9 кадров
    Идентификатор кодека : V_MPEG4/ISO/AVC
    Продолжительность : 1 ч. 38 м.
    Битрейт : 5599 Кбит/сек
    Ширина : 1280 пикселей
    Высота : 536 пикселей
    Соотношение сторон : 2, 40: 1
    Режим частоты кадров : Постоянный
    Частота кадров : 23, 976 кадра/сек
    Цветовое пространство : YUV
    Субдискретизация насыщенности : 4: 2: 0
    Битовая глубина : 8 бит
    Тип развёртки : Прогрессивная
    Бит/(Пиксели*Кадры) : 0.340
    Размер потока : 3, 76 Гбайт (86%)
    Библиотека кодирования : x264 core 146 r2538 121396c
    Настройки программы : cabac=1/ref=9/deblock=1: -3: -3/analyse=0x3: 0x133/me=umh/subme=10/psy=1/psy_rd=1.10: 0.15/mixed_ref=1/me_range=32/chroma_me=1/trellis=2/8x8dct=1/cqm=0/deadzone=21, 11/fast_pskip=0/chroma_qp_offset=-3/threads=12/lookahead_threads=2/sliced_threads=0/nr=0/decimate=0/interlaced=0/bluray_compat=0/constrained_intra=0/bframes=8/b_pyramid=2/b_adapt=2/b_bias=0/direct=3/weightb=1/open_gop=0/weightp=2/keyint=240/keyint_min=23/scenecut=40/intra_refresh=0/rc_lookahead=40/rc=2pass/mbtree=0/bitrate=5599/ratetol=1.0/qcomp=0.60/qpmin=0/qpmax=69/qpstep=4/cplxblur=20.0/qblur=0.5/vbv_maxrate=50000/vbv_bufsize=62500/nal_hrd=none/filler=0/ip_ratio=1.40/pb_ratio=1.30/aq=3: 0.90
    Язык : English
    Default : Да
    Forced : Нет
    Аудио
    Идентификатор : 2
    Формат : DTS
    Формат/Информация : Digital Theater Systems
    Режим : 16
    Параметр Endianness формата : Big
    Идентификатор кодека : A_DTS
    Продолжительность : 1 ч. 38 м.
    Вид битрейта : Постоянный
    Битрейт : 768 Кбит/сек
    Каналы : 6 каналов
    Расположение каналов : Front: L C R, Side: L R, LFE
    Частота : 48, 0 КГц
    Битовая глубина : 24 бит
    Метод сжатия : С потерями
    Размер потока : 540 Мбайт (12%)
    Язык : Russian
    Default : Да
    Forced : Нет

    Скриншоты:


    Онлайн видео Челюсти 3


    Размер скачиваемого торрента: 4.37 GB (4693894938 Bytes)

    Челюсти 3/Jaws 3-D (1983) BDRip 720p | P
    загрузка...
    Рейтинг →
     (голосов: 1, оценка 3/5, голосовать можно 1 раз )

    Другие торренты по теме:

  • Челюсти / Jaws (1975) BDRip от HQCLUB
  • Челюсти / Jaws (1975) BDRip-AVC от Youtracker
  • Челюсти / Jaws (1975) BDRip 1080p от BT-Club скачать через торрент бесплатно
  • Челюсти / Jaws (1975) BDRip 720p от New-Team
  • Челюсти / Jaws (1975) HDRip от Scarabey | Р
  • Челюсти / Jaws (1975) BDRip 720p от Leonardo and Scarabey | P | A
  • Челюсти / Jaws (1975) BDRip-AVC | P, A
  • Челюсти 2 / Jaws 2 (1978) HDTVRip-AVC | P


    • Комментарии (0):

      Информация

      Информация

        Посетители, находящиеся в группе Гости, не могут оставлять комментарии в данной новости.

        ↓ Меню



        ↓ Опрос

        А Вы добавили сайт в закладки?
        Да
        Не


        Top 10 за месяц (Фильмы)