.
Авторизация | Регистрация
» » Ключ от всех дверей / The Skeleton Key (2005) BDRip 1080p | D, P2, A скачать торрент бесплатно




    Ключ от всех дверей / The Skeleton Key (2005) BDRip 1080p | D, P2, A скачать торрент бесплатно

    Опубликовал: Админ | Дата: 29-06-2016, 05:00 | Просмотров: 52



    Детально о кино
    Русское название: Ключ от всех дверей
    Русское название в мировом прокате: The Skeleton Key
    Создали в: 2005
    Категория жанра: ужасы, триллер, детектив
    Главный режиссер: Иэн Софтли

    Актеры
    Кейт Хадсон, Джина Роулендс, Джон Хёрт, Питер Сарсгаард, Джой Брайант, Максин Барнетт, Фэнлони Р. Харрис, Мэрион Цинсер, Денин Тайлер, Энн Далримпл

    Сюжет фильма

    25-летняя Кэролайн Эллис устраивается работать сиделкой к пожилому инвалиду Бену Деверо, владельцу огромного особняка неподалеку от Луизианы. Его жена Вайолет вручает девушке универсальный ключ от всех дверей в доме.
    Однажды Кэролайн обнаруживает секретную комнату, расположенную на чердаке с массой мистических предметов. Хозяйка утверждает, что вещи принадлежат бывшим владельцам, которые занимались черной магией. Вскоре Кэролайн становится свидетельницей довольно странных и необъяснимых событий и решает, во что бы то ни стало, разгадать секрет таинственной комнаты…

    Снималось в: США, Германия
    Киностудия: ShadowCatcher Entertainment, Universal Pictures
    Время просмотра: 01: 43: 57
    Перевод текста: Профессиональный (дублированный) Blu-ray EUR + Профессиональный (двухголосый, закадровый) Tycoon-Studio + Авторский (одноголосый, закадровый) Андрей Гаврилов + Авторский (одноголосый, закадровый) Юрий Немахов + Авторский (одноголосый, закадровый) Михаил Яроцкий
    Файл
    Тип видео: Matroska
    Информация о видео: 1920х816 at 23.976 fps, email protected/**/, ~10700 kbps avg
    Информация о звуке#1: Russian: 48 kHz, DTS, 3/2 (L, C, R, l, r) + LFE ch, ~768 kbps avg |Дубляж, Blu-ray EUR|
    Информация о звуке#2: Russian: 48 kHz, AC3, 3/2 (L, C, R, l, r) + LFE ch, ~448 kbps avg |Двухголосый закадровый, Tycoon-Studio|
    Информация о звуке#3: Russian: 48 kHz, DTS, 3/2 (L, C, R, l, r) + LFE ch, ~1509 kbps avg |Авторский, А.Гаврилов|
    Информация о звуке#4: Russian: 48 kHz, DTS, 3/2 (L, C, R, l, r) + LFE ch, ~1509 kbps avg |Авторский, Ю.Немахов|
    Информация о звуке#5: Russian: 48 kHz, AC3, 3/2 (L, C, R, l, r) + LFE ch, ~448 kbps avg |Авторский, М.Яроцкий|
    Информация о звуке#6: English: 48 kHz, DTS, 3/2 (L, C, R, l, r) + LFE ch, ~1509 kbps avg
    Субтитры: Russian, English
    MI
    Общее
    Уникальный идентификатор : 179106612909233109659245720881827977498 (0x86BEADCCA67D7531B7C6D26F14CC991A)
    Полное имя : Ключ от всех дверей.2005.BDRip.1080p.mkv
    Формат : Matroska
    Версия формата : Version 4/Version 2
    Размер файла : 12, 5 Гбайт
    Продолжительность : 1 ч. 43 м.
    Общий поток : 17, 2 Мбит/сек
    Дата кодирования : UTC 2016-06-28 04: 46: 32
    Программа кодирования : mkvmerge v8.2.0 (;World of Adventure;) 64bit
    Библиотека кодирования : libebml v1.3.1 + libmatroska v1.4.2
    Видео
    Идентификатор : 1
    Формат : AVC
    Формат/Информация : Advanced Video Codec
    Профиль формата : High@L4.1
    Параметр CABAC формата : Да
    Параметр ReFrames формата : 4 кадра
    Идентификатор кодека : V_MPEG4/ISO/AVC
    Продолжительность : 1 ч. 43 м.
    Битрейт : 10, 7 Мбит/сек
    Ширина : 1920 пикселей
    Высота : 816 пикселей
    Соотношение сторон : 2, 35: 1
    Режим частоты кадров : Постоянный
    Частота кадров : 23, 976 кадра/сек
    Цветовое пространство : YUV
    Субдискретизация насыщенности : 4: 2: 0
    Битовая глубина : 8 бит
    Тип развёртки : Прогрессивная
    Бит/(Пиксели*Кадры) : 0.284
    Размер потока : 7, 74 Гбайт (62%)
    Библиотека кодирования : x264 core 146 r2538 121396c
    Настройки программы : cabac=1/ref=4/deblock=1: -1: -1/analyse=0x3: 0x113/me=umh/subme=10/psy=1/psy_rd=1.00: 0.15/mixed_ref=1/me_range=32/chroma_me=1/trellis=2/8x8dct=1/cqm=0/deadzone=21, 11/fast_pskip=1/chroma_qp_offset=-3/threads=6/lookahead_threads=1/sliced_threads=0/nr=0/decimate=1/interlaced=0/bluray_compat=0/constrained_intra=0/bframes=7/b_pyramid=2/b_adapt=2/b_bias=0/direct=1/weightb=1/open_gop=0/weightp=2/keyint=230/keyint_min=23/scenecut=40/intra_refresh=0/rc_lookahead=40/rc=crf/mbtree=0/crf=17.5/qcomp=0.60/qpmin=0/qpmax=69/qpstep=4/vbv_maxrate=40000/vbv_bufsize=50000/crf_max=0.0/nal_hrd=none/filler=0/ip_ratio=1.40/pb_ratio=1.30/aq=1: 1.00
    Язык : English
    Default : Да
    Forced : Нет
    Аудио #1
    Идентификатор : 2
    Формат : DTS
    Формат/Информация : Digital Theater Systems
    Режим : 16
    Параметр Endianness формата : Big
    Идентификатор кодека : A_DTS
    Продолжительность : 1 ч. 43 м.
    Вид битрейта : Постоянный
    Битрейт : 768 Кбит/сек
    Каналы : 6 каналов
    Расположение каналов : Front: L C R, Side: L R, LFE
    Частота : 48, 0 КГц
    Битовая глубина : 24 бит
    Метод сжатия : С потерями
    Размер потока : 571 Мбайт (4%)
    Заголовок : DUB
    Язык : Russian
    Default : Да
    Forced : Нет
    Аудио #2
    Идентификатор : 3
    Формат : AC-3
    Формат/Информация : Audio Coding 3
    Расширение режима : CM (complete main)
    Параметр Endianness формата : Big
    Идентификатор кодека : A_AC3
    Продолжительность : 1 ч. 43 м.
    Вид битрейта : Постоянный
    Битрейт : 448 Кбит/сек
    Каналы : 6 каналов
    Расположение каналов : Front: L C R, Side: L R, LFE
    Частота : 48, 0 КГц
    Метод сжатия : С потерями
    Размер потока : 333 Мбайт (3%)
    Заголовок : DVO (Tycoon)
    Язык : Russian
    Default : Нет
    Forced : Нет
    Аудио #3
    Идентификатор : 4
    Формат : DTS
    Формат/Информация : Digital Theater Systems
    Режим : 16
    Параметр Endianness формата : Big
    Идентификатор кодека : A_DTS
    Продолжительность : 1 ч. 43 м.
    Вид битрейта : Постоянный
    Битрейт : 1509 Кбит/сек
    Каналы : 6 каналов
    Расположение каналов : Front: L C R, Side: L R, LFE
    Частота : 48, 0 КГц
    Битовая глубина : 24 бит
    Метод сжатия : С потерями
    Размер потока : 1, 10 Гбайт (9%)
    Заголовок : AVO (Андрей Гаврилов)
    Язык : Russian
    Default : Нет
    Forced : Нет
    Аудио #4
    Идентификатор : 5
    Формат : DTS
    Формат/Информация : Digital Theater Systems
    Режим : 16
    Параметр Endianness формата : Big
    Идентификатор кодека : A_DTS
    Продолжительность : 1 ч. 43 м.
    Вид битрейта : Постоянный
    Битрейт : 1509 Кбит/сек
    Каналы : 6 каналов
    Расположение каналов : Front: L C R, Side: L R, LFE
    Частота : 48, 0 КГц
    Битовая глубина : 24 бит
    Метод сжатия : С потерями
    Размер потока : 1, 10 Гбайт (9%)
    Заголовок : AVO (Юрий Немахов)
    Язык : Russian
    Default : Нет
    Forced : Нет
    Аудио #5
    Идентификатор : 6
    Формат : AC-3
    Формат/Информация : Audio Coding 3
    Расширение режима : CM (complete main)
    Параметр Endianness формата : Big
    Идентификатор кодека : A_AC3
    Продолжительность : 1 ч. 43 м.
    Вид битрейта : Постоянный
    Битрейт : 448 Кбит/сек
    Каналы : 6 каналов
    Расположение каналов : Front: L C R, Side: L R, LFE
    Частота : 48, 0 КГц
    Метод сжатия : С потерями
    Размер потока : 333 Мбайт (3%)
    Заголовок : AVO (Михаил Яроцкий)
    Язык : Russian
    Default : Нет
    Forced : Нет
    Аудио #6
    Идентификатор : 7
    Формат : DTS
    Формат/Информация : Digital Theater Systems
    Режим : 16
    Параметр Endianness формата : Big
    Идентификатор кодека : A_DTS
    Продолжительность : 1 ч. 43 м.
    Вид битрейта : Постоянный
    Битрейт : 1509 Кбит/сек
    Каналы : 6 каналов
    Расположение каналов : Front: L C R, Side: L R, LFE
    Частота : 48, 0 КГц
    Битовая глубина : 24 бит
    Метод сжатия : С потерями
    Размер потока : 1, 10 Гбайт (9%)
    Заголовок : original
    Язык : English
    Default : Нет
    Forced : Нет
    Текст #1
    Идентификатор : 8
    Формат : UTF-8
    Идентификатор кодека : S_TEXT/UTF8
    Идентификатор кодека/Информация : UTF-8 Plain Text
    Заголовок : русские
    Язык : Russian
    Default : Нет
    Forced : Нет
    Текст #2
    Идентификатор : 9
    Формат : UTF-8
    Идентификатор кодека : S_TEXT/UTF8
    Идентификатор кодека/Информация : UTF-8 Plain Text
    Заголовок : английские (для слабослышащих)
    Язык : English
    Default : Нет
    Forced : Нет
    Скриншоты


    Онлайн видео Ключ от всех дверей


    Размер скачиваемого торрента: 12.49 GB (13407314219 Bytes)

    Ключ от всех дверей/The Skeleton Key (2005) BDRip 1080p | D, P2, A
    загрузка...
    Рейтинг →
     (голосов: 1, оценка 4/5, голосовать можно 1 раз )

    Другие торренты по теме:

  • Ключ от всех дверей / The Skeleton Key (2005) HDRip-AVC | D торрент скачать бесплатно
  • Ключ от всех дверей / The Skeleton Key (2005) BDRip-AVC от 0ptimus | D, P2, A торрент скачать бесплатно
  • Ключ от всех дверей / The Skeleton Key (2005) BDRip от Rulya74 | P скачать через торрент бесплатно
  • Ключ от всех дверей / The Skeleton Key (2005) HDRip от MegaPeer | Немахов скачать торрент бесплатно


    • Комментарии (0):

      Информация

      Информация

        Посетители, находящиеся в группе Гости, не могут оставлять комментарии в данной новости.

        ↓ Меню



        ↓ Опрос

        А Вы добавили сайт в закладки?
        Да
        Не


        Top 10 за неделю (Фильмы)