.
Авторизация | Регистрация
Хочешь лучшие торренты? Добавь свой email!
Добавить
» » Стая / The Pack (2015) BDRip 1080p от ExKinoRay | L2 торрент скачать бесплатно




    Стая / The Pack (2015) BDRip 1080p от ExKinoRay | L2 торрент скачать бесплатно

    Опубликовал: Админ | Дата: 29-06-2016, 17:11 | Просмотров: 64



    Детально о кино
    Русское название: Стая
    Русское название в мировом прокате: The Pack
    Создали в: 2015
    Категория жанра: Ужасы, триллер
    Главный режиссер: Ник Робертсон

    Актеры
    Анна Лизе Филлипс, Джек Кэмпбелл, Киран Томас Макнамара, Кэти Мур, Хэмиш Филлипс, Чарльз Майер

    Сюжет фильма

    У Адама Уилсона большие проблемы. Скот на сельском ранчо побит, ветеринарный бизнес жены не удается, будущее для семьи с двумя детьми не слишком определено. А тут еще и банк-кредитор угрожает забрать в счет долгов имущество. Но Адам уверен, что все будет хорошо. Этим вечером он устраивает праздничный пир, но мрачные тени скрыты и за пределами фермы. Большая стая голодных свирепых диких собак бродит по округе...

    Снималось в: Австралия
    Киностудия: Breakout Movies, Kojo Pictures, Lightning Entertainmen
    Время просмотра: 01: 24: 34
    Перевод текста: Любительский двухголосый (закадровый) | den904DeadSno
    Файл
    Кодек для видео: MPEG-4
    Качество фильма: BDRip 1080p
    Информация о видео: 1920x814, 12.1 Mbit/s, 23.976 fps
    Информация о звуке:
    Информация о звуке #01: 48 kHz, AC3, 2.0, 192 Kbps | Любительский двухголосый (закадровый), den904DeadSno |
    Информация о звуке #02: 48 kHz, DTS, 5.1, 1510 kbps | Оригинал |
    Субтитры: Английские
    Релиз подготовил: Автор релиза:

    MI
    General
    Unique ID : 201186836041441133608443879756213202057 (0x975B2CD9923CD28985FAB5AC0FB32C89)
    Complete name : F: VideoThe.Pack.2015.BDRip.1080p.ExKinoRay.mkv
    Format : Matroska
    Format version : Version 4/Version 2
    File size : 8.50 GiB
    Duration : 1h 28mn
    Overall bit rate : 13.8 Mbps
    Movie name : The.Pack.2015.BDRip.1080p.ExKinoRay
    Encoded date : UTC 2016-06-28 03: 32: 05
    Writing application : mkvmerge v8.3.0 (;Over the Horizon;) 64bit
    Writing library : libebml v1.3.1 + libmatroska v1.4.2
    Video
    ID : 1
    Format : AVC
    Format/Info : Advanced Video Codec
    Format profile : High@L4.1
    Format settings, CABAC : Yes
    Format settings, ReFrames : 5 frames
    Codec ID : V_MPEG4/ISO/AVC
    Duration : 1h 28mn
    Bit rate : 12.1 Mbps
    Width : 1 920 pixels
    Height : 814 pixels
    Display aspect ratio : 2.35: 1
    Frame rate mode : Constant
    Frame rate : 23.976 (24000/1001) fps
    Color space : YUV
    Chroma subsampling : 4: 2: 0
    Bit depth : 8 bits
    Scan type : Progressive
    Bits/(Pixel*Frame) : 0.322
    Stream size : 7.45 GiB (88%)
    Writing library : x264 core 146 r2538 121396c
    Encoding settings : cabac=1/ref=5/deblock=1: -3: -3/analyse=0x3: 0x133/me=tesa/subme=11/psy=1/psy_rd=1.04: 0.00/mixed_ref=1/me_range=32/chroma_me=1/trellis=2/8x8dct=1/cqm=0/deadzone=21, 11/fast_pskip=0/chroma_qp_offset=-2/threads=60/lookahead_threads=6/sliced_threads=0/nr=0/decimate=0/interlaced=0/bluray_compat=0/constrained_intra=0/bframes=12/b_pyramid=2/b_adapt=2/b_bias=0/direct=3/weightb=1/open_gop=0/weightp=2/keyint=240/keyint_min=23/scenecut=40/intra_refresh=0/rc_lookahead=150/rc=crf/mbtree=0/crf=16.2/qcomp=0.60/qpmin=0/qpmax=69/qpstep=4/vbv_maxrate=62500/vbv_bufsize=78125/crf_max=0.0/nal_hrd=none/filler=0/ip_ratio=1.40/pb_ratio=1.30/aq=1: 0.80
    Language : English
    Default : Yes
    Forced : No
    Audio #1
    ID : 2
    Format : AC-3
    Format/Info : Audio Coding 3
    Mode extension : CM (complete main)
    Format settings, Endianness : Big
    Codec ID : A_AC3
    Duration : 1h 28mn
    Bit rate mode : Constant
    Bit rate : 192 Kbps
    Channel(s) : 2 channels
    Channel positions : Front: L R
    Sampling rate : 48.0 KHz
    Frame rate : 31.250 fps (1536 spf)
    Compression mode : Lossy
    Delay relative to video : 12s 0ms
    Stream size : 121 MiB (1%)
    Title : DVO den904DeadSno
    Language : Russian
    Default : Yes
    Forced : No
    Audio #2
    ID : 3
    Format : DTS
    Format/Info : Digital Theater Systems
    Mode : 16
    Format settings, Endianness : Big
    Codec ID : A_DTS
    Duration : 1h 28mn
    Bit rate mode : Constant
    Bit rate : 1 509 Kbps
    Channel(s) : 6 channels
    Channel positions : Front: L C R, Side: L R, LFE
    Sampling rate : 48.0 KHz
    Frame rate : 93.750 fps (512 spf)
    Bit depth : 24 bits
    Compression mode : Lossy
    Stream size : 954 MiB (11%)
    Title : Original
    Language : English
    Default : No
    Forced : No
    Text #1
    ID : 4
    Format : UTF-8
    Codec ID : S_TEXT/UTF8
    Codec ID/Info : UTF-8 Plain Text
    Duration : 1h 22mn
    Bit rate : 18 bps
    Count of elements : 411
    Stream size : 11.3 KiB (0%)
    Title : Full
    Language : English
    Default : No
    Forced : No
    Text #2
    ID : 5
    Format : UTF-8
    Codec ID : S_TEXT/UTF8
    Codec ID/Info : UTF-8 Plain Text
    Duration : 1h 24mn
    Bit rate : 28 bps
    Count of elements : 844
    Stream size : 17.8 KiB (0%)
    Title : SDH
    Language : English
    Default : No
    Forced : No
    Menu
    00: 00: 00.000 : en: Chapter 1
    00: 06: 54.289 : en: Chapter 2
    00: 13: 55.168 : en: Chapter 3
    00: 20: 20.594 : en: Chapter 4
    00: 27: 56.466 : en: Chapter 5
    00: 34: 55.135 : en: Chapter 6
    00: 42: 24.250 : en: Chapter 7
    00: 48: 08.511 : en: Chapter 8
    00: 55: 01.381 : en: Chapter 9
    01: 00: 45.600 : en: Chapter 10
    01: 09: 25.119 : en: Chapter 11
    01: 16: 54.276 : en: Chapter 12
    Скриншоты

    Размер скачиваемого торрента: 8.50 GB (9124026358 Bytes)

    Стая/The Pack (2015) BDRip 1080p от ExKinoRay | L2
    загрузка...
    Рейтинг →
     (голосов: 1, оценка 3/5, голосовать можно 1 раз )

    Другие торренты по теме:

  • Крысиная стая / The Rat Pack (1998) DVDRip
  • Стая / The Pack / 2015 / ЛО / WEB-DL (720p)
  • Стая / The Pack (2015) HDRip от Portablius | L2


    • Комментарии (0):

      Информация

      Информация

        Посетители, находящиеся в группе Гости, не могут оставлять комментарии в данной новости.

        ↓ Меню



        ↓ Опрос

        А Вы добавили сайт в закладки?
        Да
        Не


        Top 10 за месяц (Фильмы)