.
Авторизация | Регистрация
Хочешь лучшие торренты? Добавь свой email!
Добавить
» » Чемпион / Pentathlon (1994) BDRip 720р | Р, A торрент скачать бесплатно




    Чемпион / Pentathlon (1994) BDRip 720р | Р, A торрент скачать бесплатно

    Опубликовал: Админ | Дата: 30-06-2016, 16:41 | Просмотров: 78



    Снималось в: США
    Категория жанра: Боевик, Триллер, Драма
    Создали в: 1994
    Время просмотра: 01: 36: 58
    Перевод текста: Профессиональный (многоголосый закадровый)R5
    Перевод текста 2: Профессиональный (многоголосый закадровый)Россия
    Перевод текста 3: Авторский (одноголосый закадровый)Андрей Дольский
    Перевод текста 4: Авторский (одноголосый закадровый)Андрей Гаврилов
    Субтитры подготовлены: русские
    Оригинальная аудиодорожка: английский
    Главный режиссер: Брюс Мэлмат/Bruce Malmuth

    Актеры
    Дольф Лундгрен, Дэвид Соул, Рени Коулмэн, Роджер Э. Мосли, Ивэн Джеймс, Дэвид Драммонд, Дэниэл Риордан, Филип Брунс, Джералд Хопкинс, Эрик Холланд
    Описание: Дольф Лундгрен в роли чемпиона Олимпийских Игр из ГДР Эрика Брогара, сбежавшего в Америку за два месяца до крушения Берлинской стены. Его отца убили агенты штази, а за ним самим они устраивают охоту в Америке. Навыки спортсмена-пятиборца ему очень пригодились.
    Доп. информация: Исходная дорога №1 была дутой, поэтому звук был смикширован и пережат в DD 2.0 @ 192 kbps
    За предоставленную дорогу №2 спасибо Slim9174. Звуковая дорожка Андрей Дольский с VHSпредоставлена Glowamy и огромное спасибо за синхронизацию DeASS. За звуковую дорожку Андрей Гаврилов спасибо Fikaloid.

    Тип релиза: BDRip 720p
    Контейнер: MKV
    Информация о видео: 1280x720 at 25.00 fps, x.264@L4.1, ~ 5500 kbps avg
    Информация о звуке#1: Russian : 48 kHz/16-bit, AC3 2/0 (L, R), ~192.00 kbps avg |R5|
    Информация о звуке#2: Russian : 48 kHz/16-bit, AC3 2/0 (L, R), ~192.00 kbps avg |Телеканал Россия|
    Информация о звуке#3: Russian : 48 kHz/16-bit, AC3 2/0 (L, R), ~192.00 kbps avg |Андрей Дольский|
    Информация о звуке#4: Russian : 48 kHz/16-bit, AC3 2/0 (L, R), ~192.00 kbps avg |Андрей Гаврилов|
    Информация о звуке#5: English : 48 kHz/24-bit, DTS 5.1 , ~768.00 kbps avg
    Тип видео субтитров: softsub (SRT)
    MediaInfo

    General
    Unique ID : 192772481950799606301969835973512400292 (0x9106A129D085E3C38DC40F4771EE0DA4)
    Format : Matroska
    Format version : Version 2
    File size : 4.77 GiB
    Duration : 1h 36mn
    Overall bit rate : 7 037 Kbps
    Encoded date : UTC 2016-06-28 03: 35: 12
    Writing application : mkvmerge v7.8.0 (;River Man;) 32bit built on Apr 3 2015 12: 11: 22
    Writing library : libebml v1.3.1 + libmatroska v1.4.2
    Video
    ID : 1
    Format : AVC
    Format/Info : Advanced Video Codec
    Format profile : High@L4.1
    Format settings, CABAC : Yes
    Format settings, ReFrames : 9 frames
    Codec ID : V_MPEG4/ISO/AVC
    Duration : 1h 36mn
    Bit rate : 5 500 Kbps
    Width : 1 280 pixels
    Height : 720 pixels
    Display aspect ratio : 16: 9
    Frame rate mode : Constant
    Frame rate : 25.000 fps
    Color space : YUV
    Chroma subsampling : 4: 2: 0
    Bit depth : 8 bits
    Scan type : Progressive
    Bits/(Pixel*Frame) : 0.239
    Stream size : 3.63 GiB (76%)
    Title : Release for HDCLUB
    Writing library : x264 core 146 r2538 121396c
    Encoding settings : cabac=1/ref=9/deblock=1: -3: -3/analyse=0x3: 0x113/me=umh/subme=11/psy=1/psy_rd=1.03: 0.08/mixed_ref=1/me_range=24/chroma_me=1/trellis=2/8x8dct=1/cqm=0/deadzone=21, 11/fast_pskip=0/chroma_qp_offset=-3/threads=12/lookahead_threads=2/sliced_threads=0/nr=0/decimate=0/interlaced=0/bluray_compat=0/constrained_intra=0/bframes=9/b_pyramid=2/b_adapt=2/b_bias=0/direct=3/weightb=1/open_gop=0/weightp=2/keyint=250/keyint_min=25/scenecut=40/intra_refresh=0/rc_lookahead=50/rc=2pass/mbtree=0/bitrate=5500/ratetol=1.0/qcomp=0.60/qpmin=0/qpmax=69/qpstep=4/cplxblur=20.0/qblur=0.5/vbv_maxrate=50000/vbv_bufsize=62500/nal_hrd=none/filler=0/ip_ratio=1.40/pb_ratio=1.30/aq=1: 0.70
    Language : English
    Default : No
    Forced : No
    Audio #1
    ID : 2
    Format : AC-3
    Format/Info : Audio Coding 3
    Mode extension : CM (complete main)
    Format settings, Endianness : Big
    Codec ID : A_AC3
    Duration : 1h 36mn
    Bit rate mode : Constant
    Bit rate : 192 Kbps
    Channel(s) : 2 channels
    Channel positions : Front: L R
    Sampling rate : 48.0 KHz
    Bit depth : 16 bits
    Compression mode : Lossy
    Stream size : 133 MiB (3%)
    Title : MVO (R5)
    Language : Russian
    Default : Yes
    Forced : No
    Audio #2
    ID : 3
    Format : AC-3
    Format/Info : Audio Coding 3
    Mode extension : CM (complete main)
    Format settings, Endianness : Big
    Codec ID : A_AC3
    Duration : 1h 36mn
    Bit rate mode : Constant
    Bit rate : 192 Kbps
    Channel(s) : 2 channels
    Channel positions : Front: L R
    Sampling rate : 48.0 KHz
    Bit depth : 16 bits
    Compression mode : Lossy
    Stream size : 133 MiB (3%)
    Title : MVO (Россия)
    Language : Russian
    Default : No
    Forced : No
    Audio #3
    ID : 4
    Format : AC-3
    Format/Info : Audio Coding 3
    Mode extension : CM (complete main)
    Format settings, Endianness : Big
    Codec ID : A_AC3
    Duration : 1h 36mn
    Bit rate mode : Constant
    Bit rate : 192 Kbps
    Channel(s) : 2 channels
    Channel positions : Front: L R
    Sampling rate : 48.0 KHz
    Bit depth : 16 bits
    Compression mode : Lossy
    Stream size : 133 MiB (3%)
    Title : AVO (Андрей Дольский)
    Language : Russian
    Default : No
    Forced : No
    Audio #4
    ID : 5
    Format : AC-3
    Format/Info : Audio Coding 3
    Mode extension : CM (complete main)
    Format settings, Endianness : Big
    Codec ID : A_AC3
    Duration : 1h 36mn
    Bit rate mode : Constant
    Bit rate : 192 Kbps
    Channel(s) : 2 channels
    Channel positions : Front: L R
    Sampling rate : 48.0 KHz
    Bit depth : 16 bits
    Compression mode : Lossy
    Stream size : 133 MiB (3%)
    Title : AVO (Андрей Гаврилов)
    Language : Russian
    Default : No
    Forced : No
    Audio #5
    ID : 6
    Format : DTS
    Format/Info : Digital Theater Systems
    Mode : 16
    Format settings, Endianness : Big
    Codec ID : A_DTS
    Duration : 1h 36mn
    Bit rate mode : Constant
    Bit rate : 768 Kbps
    Channel(s) : 6 channels
    Channel positions : Front: L C R, Side: L R, LFE
    Sampling rate : 48.0 KHz
    Bit depth : 24 bits
    Compression mode : Lossy
    Stream size : 533 MiB (11%)
    Language : English
    Default : No
    Forced : No
    Text
    ID : 7
    Format : UTF-8
    Codec ID : S_TEXT/UTF8
    Codec ID/Info : UTF-8 Plain Text
    Language : Russian
    Default : No
    Forced : No
    Menu
    00: 00: 00.000 : en: Chapter 01
    00: 10: 34.680 : en: Chapter 02
    00: 20: 35.200 : en: Chapter 03
    00: 31: 01.520 : en: Chapter 04
    00: 39: 10.000 : en: Chapter 05
    00: 49: 32.920 : en: Chapter 06
    00: 59: 15.800 : en: Chapter 07
    01: 09: 38.120 : en: Chapter 08
    01: 20: 08.720 : en: Chapter 09
    01: 33: 41.600 : en: Chapter 10

    Скриншоты




    Онлайн видео Чемпион


    Размер скачиваемого торрента: 4.77 GB (5117539445 Bytes)

    Чемпион/Pentathlon (1994) BDRip 720р | Р, A
    загрузка...
    Рейтинг →
     (голосов: 1, оценка 3/5, голосовать можно 1 раз )

    Другие торренты по теме:

  • Чемпион / Pentathlon (1994) BDRip-AVC | Р
  • Чемпион / Pentathlon (1994) BDRip | A
  • Чемпион / Pentathlon / 1994 / АП (Гаврилов) / BDRip


    • Комментарии (0):

      Информация

      Информация

        Посетители, находящиеся в группе Гости, не могут оставлять комментарии в данной новости.

        ↓ Меню



        ↓ Опрос

        А Вы добавили сайт в закладки?
        Да
        Не


        Top 10 за месяц (Фильмы)