.
Авторизация | Регистрация
Хочешь лучшие торренты? Добавь свой email!
Добавить
» » Всевидящее око / Eye in the Sky (2015) BDRip 1080p от ExKinoRay | iTunes торрент скачать бесплатно




    Всевидящее око / Eye in the Sky (2015) BDRip 1080p от ExKinoRay | iTunes торрент скачать бесплатно

    Опубликовал: Админ | Дата: 1-07-2016, 05:00 | Просмотров: 55



    Детально о кино
    Русское название: Всевидящее око
    Русское название в мировом прокате: Eye in the Sky
    Создали в: 2015
    Категория жанра: Триллер, драма, военный
    Главный режиссер: Гэвин Худ

    Актеры
    Хелен Миррен, Файза Хассан, Аиша Такоу, Армаан Хаггио, Боб Чаппель, Алекс Гафлавент, Аарон Пол, Бабу Сизей, Карл Бьюкс, Кейт Ликориш

    Сюжет фильма

    Хелен Миррен играет полковника Пауэлл, офицера армии Великобритании которая возглавляет тайную операцию с применением беспилотного аппарата, целью которой является поимка террористов в Кении. Тщательно спланированная миссия внезапно меняет приоритеты и вместо поимки...

    Снималось в: Великобритания
    Киностудия: Entertainment One
    Время просмотра: 01: 42: 45
    Перевод текста: Профессиональный многоголосый (закадровый) | iTunes
    Файл
    Кодек для видео: MPEG-4
    Качество фильма: BDRip 1080p
    Информация о видео: 1920x804, 15.4 Mbit/s, 23.976 fps
    Информация о звуке:
    Информация о звуке #01: 48 kHz, AC3, 5.1, 384 Kbps | Профессиональный многоголосый (закадровый), iTunes | AC3
    Информация о звуке #02: 48 kHz, DTS, 5.1, 1510 kbps | Оригинал | DTS
    Субтитры: Русские (forced), английские
    Релиз подготовил: Автор релиза:

    MI
    General
    Unique ID : 174071334786056918836995515116449396691 (0x82F4EB6BB7BDB77B8BD5E13550CF77D3)
    Complete name : F: VideoEye.In.The.Sky.2015..BDRip.1080p.ExKinoRay.mkv
    Format : Matroska
    Format version : Version 4/Version 2
    File size : 12.4 GiB
    Duration : 1h 42mn
    Overall bit rate : 17.3 Mbps
    Movie name : Eye.In.The.Sky.2015..BDRip.1080p.ExKinoRay
    Encoded date : UTC 2016-06-30 21: 22: 16
    Writing application : mkvmerge v8.3.0 (;Over the Horizon;) 64bit
    Writing library : libebml v1.3.1 + libmatroska v1.4.2
    Video
    ID : 1
    Format : AVC
    Format/Info : Advanced Video Codec
    Format profile : High@L4.1
    Format settings, CABAC : Yes
    Format settings, ReFrames : 5 frames
    Codec ID : V_MPEG4/ISO/AVC
    Duration : 1h 42mn
    Bit rate : 15.4 Mbps
    Width : 1 920 pixels
    Height : 804 pixels
    Display aspect ratio : 2.40: 1
    Frame rate mode : Constant
    Frame rate : 23.976 (24000/1001) fps
    Color space : YUV
    Chroma subsampling : 4: 2: 0
    Bit depth : 8 bits
    Scan type : Progressive
    Bits/(Pixel*Frame) : 0.417
    Stream size : 11.1 GiB (89%)
    Writing library : x264 core 148 r2638 7599210
    Encoding settings : cabac=1/ref=5/deblock=1: -3: -3/analyse=0x3: 0x133/me=tesa/subme=11/psy=1/psy_rd=1.04: 0.00/mixed_ref=1/me_range=32/chroma_me=1/trellis=2/8x8dct=1/cqm=0/deadzone=21, 11/fast_pskip=0/chroma_qp_offset=-2/threads=25/lookahead_threads=4/sliced_threads=0/nr=0/decimate=0/interlaced=0/bluray_compat=0/constrained_intra=0/bframes=9/b_pyramid=2/b_adapt=2/b_bias=0/direct=3/weightb=1/open_gop=0/weightp=2/keyint=240/keyint_min=23/scenecut=40/intra_refresh=0/rc_lookahead=150/rc=crf/mbtree=0/crf=15.0/qcomp=0.60/qpmin=0/qpmax=69/qpstep=4/vbv_maxrate=62500/vbv_bufsize=78125/crf_max=0.0/nal_hrd=none/filler=0/ip_ratio=1.40/pb_ratio=1.30/aq=1: 0.80
    Language : English
    Default : Yes
    Forced : No
    Audio #1
    ID : 2
    Format : AC-3
    Format/Info : Audio Coding 3
    Mode extension : CM (complete main)
    Format settings, Endianness : Big
    Codec ID : A_AC3
    Duration : 1h 42mn
    Bit rate mode : Constant
    Bit rate : 384 Kbps
    Channel(s) : 6 channels
    Channel positions : Front: L C R, Side: L R, LFE
    Sampling rate : 48.0 KHz
    Frame rate : 31.250 fps (1536 spf)
    Compression mode : Lossy
    Stream size : 282 MiB (2%)
    Title : MVO iTunes
    Language : Russian
    Default : Yes
    Forced : No
    Audio #2
    ID : 3
    Format : DTS
    Format/Info : Digital Theater Systems
    Mode : 16
    Format settings, Endianness : Big
    Codec ID : A_DTS
    Duration : 1h 42mn
    Bit rate mode : Constant
    Bit rate : 1 509 Kbps
    Channel(s) : 6 channels
    Channel positions : Front: L C R, Side: L R, LFE
    Sampling rate : 48.0 KHz
    Frame rate : 93.750 fps (512 spf)
    Bit depth : 24 bits
    Compression mode : Lossy
    Stream size : 1.08 GiB (9%)
    Title : Original
    Language : English
    Default : No
    Forced : No
    Text #1
    ID : 4
    Format : UTF-8
    Codec ID : S_TEXT/UTF8
    Codec ID/Info : UTF-8 Plain Text
    Duration : 1h 24mn
    Bit rate : 9 bps
    Count of elements : 120
    Stream size : 6.01 KiB (0%)
    Title : Forced
    Language : Russian
    Default : Yes
    Forced : No
    Text #2
    ID : 5
    Format : UTF-8
    Codec ID : S_TEXT/UTF8
    Codec ID/Info : UTF-8 Plain Text
    Duration : 1h 29mn
    Bit rate : 53 bps
    Count of elements : 1024
    Stream size : 34.9 KiB (0%)
    Title : Full
    Language : English
    Default : No
    Forced : No
    Text #3
    ID : 6
    Format : UTF-8
    Codec ID : S_TEXT/UTF8
    Codec ID/Info : UTF-8 Plain Text
    Duration : 1h 31mn
    Bit rate : 56 bps
    Count of elements : 1143
    Stream size : 38.1 KiB (0%)
    Title : SDH
    Language : English
    Default : No
    Forced : No
    Menu
    00: 00: 00.000 : en: 00: 00: 00.000
    00: 05: 23.823 : en: 00: 05: 23.823
    00: 10: 50.149 : en: 00: 10: 50.149
    00: 15: 12.787 : en: 00: 15: 12.787
    00: 19: 07.355 : en: 00: 19: 07.355
    00: 25: 23.230 : en: 00: 25: 23.230
    00: 30: 22.320 : en: 00: 30: 22.320
    00: 36: 55.630 : en: 00: 36: 55.630
    00: 41: 49.590 : en: 00: 41: 49.590
    00: 46: 48.556 : en: 00: 46: 48.556
    00: 50: 25.147 : en: 00: 50: 25.147
    00: 55: 24.279 : en: 00: 55: 24.279
    00: 59: 34.905 : en: 00: 59: 34.905
    01: 03: 25.010 : en: 01: 03: 25.010
    01: 10: 24.262 : en: 01: 10: 24.262
    01: 16: 51.148 : en: 01: 16: 51.148
    01: 21: 32.304 : en: 01: 21: 32.304
    01: 26: 15.003 : en: 01: 26: 15.003
    01: 30: 03.398 : en: 01: 30: 03.398
    01: 33: 42.033 : en: 01: 33: 42.033
    Скриншоты


    Онлайн видео Всевидящее око


    Размер скачиваемого торрента: 12.43 GB (13347572561 Bytes)

    Всевидящее око/Eye in the Sky (2015) BDRip 1080p от ExKinoRay | iTunes
    загрузка...
    Рейтинг →
     (голосов: 1, оценка 3/5, голосовать можно 1 раз )

    Другие торренты по теме:

  • Всевидящее око / Eye in the Sky (2015) BDRip 720p от ExKinoRay | L
  • Всевидящее око / Eye in the Sky (2015) BDRip 1080p | iTunes
  • Всевидящее око / Eye in the Sky (2015) BDRip-AVC | iTunes
  • Всевидящее око / Eye in the Sky / 2015 / ПМ / BDRip (AVC)
  • Всевидящее око / Eye in the Sky (2015) BDRip-AVC от HELLYWOOD | iTunes


    • Комментарии (0):

      Информация

      Информация

        Посетители, находящиеся в группе Гости, не могут оставлять комментарии в данной новости.

        ↓ Меню



        ↓ Опрос

        А Вы добавили сайт в закладки?
        Да
        Не


        Top 10 за месяц (Фильмы)