.
Авторизация | Регистрация
» » Внедрение / Intrusion (2015) DVB | Sub скачать торрент бесплатно




    Внедрение / Intrusion (2015) DVB | Sub скачать торрент бесплатно

    Опубликовал: Админ | Дата: 1-07-2016, 14:23 | Просмотров: 83


    Внедрение
    Intrusion Создали в: 2015
    Снималось в: Франция
    Категория жанра: психологический триллер, драма
    Время просмотра: 00: 45: 00
    Перевод текста: Субтитры (русский перевод М.Кузиной, ?clair Media)
    Главный режиссёр: Ксавье Палю/Xavier Palud

    Актеры
    Джонатан Заккаи/Jonathan Zacca?(Philippe/Marc), Жюдит Эль Зейн/Judith El Zein(Astrid), Мари Кремер/Marie Kremer(Jeanne), Эрик Бергер/?ric Berger(Olivier), Франц-Рудольф Ланг/Franz-Rudolf Lang(Harold)
    Описание: Талантливый пианист Филипп Кеслер готовится к важному концерту в Страссбурге. Однако день ото дня звуки и образы вокруг него становятся все более искаженными и похожими на иную реальность. Он все глубже погружается в страх безумия, а его игра становится похожа на какофонию похоронного марша...
    Доп. информация: Hot Bird (13.0°E) TV5MONDE Europe DVB-S
    Награда: приз Золото Пиренеев за лучший сериал Luchon International Film Festival 2015.


    Автор записи: ralf124c41+
    Качество фильма: DVB
    Тип видео: MKV
    Информация о видео: MPEG Video 2, 720x576@1024x576 (16: 9), 25 fps, ~2785 kbps avg, 0.269 bit/pixel
    Информация о звуке: MPEG Audio 2, 2 ch, 48 kHz, 192 kbps - французский
    Субтитры: русские, немецкие, нидерландские, румынские - prerendered (IDX+SUB); английские, французские - softsub (SRT)
    Список серий

    Эпизод 01: Диссонанс/Dissonances
    Эпизод 02: Дисгармония/Disharmonie
    Эпизод 03: Какофония/Cacophonie

    MediaInfo

    General
    Unique ID : 217222583216293960914008544680020046856 (0xA36B8C3A1655112C9363A5D699587408)
    Complete name : aprederIntrusion_ep.01(2015)DVB.mkv
    Format : Matroska
    Format version : Version 2
    File size : 976 MiB
    Duration : 44mn 55s
    Overall bit rate mode : Variable
    Overall bit rate : 3 037 Kbps
    Movie name : Intrusion
    Released date : 2015-05-28
    Encoded date : UTC 2016-06-13 06: 29: 50
    Writing application : mkvmerge v9.2.0 (;Photograph;) 64bit
    Writing library : libebml v1.3.3 + libmatroska v1.4.4
    Cover : Yes
    Attachments : cover.jpg/cover_small.jpg
    ACTOR : Jonathan Zaccaп, Marie Kremer
    DIRECTOR : Xavier Palud
    GENRE : Drama, Mystery, Thriller
    IMDB : tt4070924
    LAW_RATING : 16+
    SUMMARY : ep.01 Dissonances
    Video
    ID : 1
    Format : MPEG Video
    Format version : Version 2
    Format profile : Main@Main
    Format settings, BVOP : Yes
    Format settings, Matrix : Custom
    Format settings, GOP : M=4, N=12
    Format settings, picture structure : Frame
    Codec ID : V_MPEG2
    Codec ID/Info : MPEG 1 or 2 Video
    Duration : 44mn 55s
    Bit rate mode : Variable
    Bit rate : 2 785 Kbps
    Width : 720 pixels
    Height : 576 pixels
    Display aspect ratio : 16: 9
    Frame rate mode : Constant
    Frame rate : 25.000 fps
    Standard : PAL
    Color space : YUV
    Chroma subsampling : 4: 2: 0
    Bit depth : 8 bits
    Scan type : Interlaced
    Scan order : Top Field First
    Compression mode : Lossy
    Bits/(Pixel*Frame) : 0.269
    Time code of first frame : 00: 00: 00: 00
    Time code source : Group of pictures t_head
    GOP, Open/Closed : Open
    GOP, Open/Closed of first frame : Closed
    Stream size : 895 MiB (92%)
    Default : Yes
    Forced : No
    Audio
    ID : 2
    Format : MPEG Audio
    Format version : Version 1
    Format profile : Layer 2
    Mode : Joint stereo
    Mode extension : Intensity Stereo + MS Stereo
    Codec ID : A_MPEG/L2
    Codec ID/Hint : MP2
    Duration : 44mn 55s
    Bit rate mode : Constant
    Bit rate : 192 Kbps
    Channel(s) : 2 channels
    Sampling rate : 48.0 KHz
    Compression mode : Lossy
    Stream size : 61.7 MiB (6%)
    Language : French
    Default : Yes
    Forced : No
    Text #1
    ID : 3
    Format : VobSub
    Codec ID : S_VOBSUB
    Codec ID/Info : Picture based subtitle format used on DVDs
    Language : Russian
    Default : No
    Forced : No
    Text #2
    ID : 4
    Format : UTF-8
    Codec ID : S_TEXT/UTF8
    Codec ID/Info : UTF-8 Plain Text
    Language : English
    Default : No
    Forced : No
    Text #3
    ID : 5
    Format : UTF-8
    Codec ID : S_TEXT/UTF8
    Codec ID/Info : UTF-8 Plain Text
    Language : French
    Default : No
    Forced : No
    Text #4
    ID : 6
    Format : VobSub
    Codec ID : S_VOBSUB
    Codec ID/Info : Picture based subtitle format used on DVDs
    Language : German
    Default : No
    Forced : No
    Text #5
    ID : 7
    Format : VobSub
    Codec ID : S_VOBSUB
    Codec ID/Info : Picture based subtitle format used on DVDs
    Language : Dutch
    Default : No
    Forced : No
    Text #6
    ID : 8
    Format : VobSub
    Codec ID : S_VOBSUB
    Codec ID/Info : Picture based subtitle format used on DVDs
    Language : Romanian
    Default : No
    Forced : No

    Скриншоты


    Резервные скриншоты




    Онлайн видео Внедрение


    Размер скачиваемого торрента: 3.09 GB (3318799555 Bytes)

    Внедрение/Intrusion (2015) DVB | Sub
    загрузка...
    Рейтинг →
     (голосов: 1, оценка 3/5, голосовать можно 1 раз )

    Другие торренты по теме:



      Комментарии (0):

      Информация

      Информация

        Посетители, находящиеся в группе Гости, не могут оставлять комментарии в данной новости.

        ↓ Меню



        ↓ Опрос

        А Вы добавили сайт в закладки?
        Да
        Не


        Top 10 за неделю (Фильмы)