.
Авторизация | Регистрация
Хочешь лучшие торренты? Добавь свой email!
Добавить
» » Весенние заморозки (1955) SATRip от New-Team торрент скачать бесплатно




    Весенние заморозки (1955) SATRip от New-Team торрент скачать бесплатно

    Опубликовал: Админ | Дата: 1-07-2016, 14:23 | Просмотров: 76



    Снималось в: СССР
    Создали в: Рижская студия
    Категория жанра: драма
    Создали в: 1955
    Время просмотра: 01: 22: 36
    Перевод текста: Субтитры
    Субтитры подготовлены: русский
    Оригинальная аудиодорожка: латышский
    Главный режиссер: Павел Арманд, Леонид Лейманис

    Актеры

    Жанис Копшталс, Карп Клетниекс, Роберт Мустапс, Лидия Фреймане, Зигрида Стунгуре, Гундарс Лейманис, Ольгерт Крастыньш, Лилита Берзиня-Приеде, Мудите Шнейдере, Рудите Калдовска, Арнолдc Милбретс, Олга Леяскалне...
    Полный список актёров
    Описание:
    Экранизация новелл латышского писателя Рудольфа Блаумана, жившего в XIX веке. В центре фильма - трагическая судьба батрачки Мадары, которая ради денег отказалась от любимого жениха, от родителей и друзей. О том, как она жестоко поплатилась за это.…



    Источник: DVB
    Качество фильма видео: SATRip
    Тип видео видео: AVI
    Информация о видео: 640x480 (4: 3), 25 fps, XviD ~ 1124 kbps avg, 0.146 bit/pixel
    Информация о звуке: 48 kHz, MP3 2.0, 128 kbps
    Субтитры: SoftSub (srt)
    Раздача от:
    MediaInfo

    Общее
    Полное имя : Vesennie.zamorozki.1955.SATRip-745_New-team_by_AVP_Studio.avi
    Формат : AVI
    Формат/Информация : Audio Video Interleave
    Размер файла : 745 Мбайт
    Продолжительность : 1 ч. 22 м.
    Общий поток : 1261 Кбит/сек
    Программа кодирования : VirtualDubMod 1.5.10.3 | www.virtualdub-fr.org || (build 2550/release)
    Библиотека кодирования : VirtualDubMod build 2550/release
    Видео
    Идентификатор : 0
    Формат : MPEG-4 Visual
    Профиль формата : Advanced Simple@L5
    Параметр BVOP формата : 1
    Параметр QPel формата : Нет
    Параметр GMC формата : Без точки перехода
    Параметр матрицы формата : Выборочная
    Идентификатор кодека : XVID
    Идентификатор кодека/Подсказка : XviD
    Продолжительность : 1 ч. 22 м.
    Битрейт : 1124 Кбит/сек
    Ширина : 640 пикселей
    Высота : 480 пикселей
    Соотношение сторон : 4: 3
    Частота кадров : 25, 000 кадров/сек
    Цветовое пространство : YUV
    Субдискретизация насыщенности : 4: 2: 0
    Битовая глубина : 8 бит
    Тип развёртки : Прогрессивная
    Метод сжатия : С потерями
    Бит/(Пиксели*Кадры) : 0.146
    Размер потока : 664 Мбайт (89%)
    Библиотека кодирования : XviD 1.2.1 (UTC 2008-12-04)
    Аудио
    Идентификатор : 1
    Формат : MPEG Audio
    Версия формата : Version 1
    Профиль формата : Layer 3
    Идентификатор кодека : 55
    Идентификатор кодека/Подсказка : MP3
    Продолжительность : 1 ч. 22 м.
    Вид битрейта : Постоянный
    Битрейт : 128 Кбит/сек
    Каналы : 2 канала
    Частота : 48, 0 КГц
    Метод сжатия : С потерями
    Размер потока : 75, 6 Мбайт (10%)
    Выравнивание : Соединение по промежуткам
    Продолжительность промежутка : 40 мс. (1, 00 видеокадр)
    Время предзагрузки промежутка : 504 мс.
    Библиотека кодирования : LAME3.99r
    Залил: AVPStudio

    Онлайн видео Весенние заморозки (1955) SATRip от New


    Размер скачиваемого торрента: 745.39 MB (781593774 Bytes)


    Весенние заморозки (1955) SATRip от New-Team
    загрузка...
    Рейтинг →
     (голосов: 1, оценка 5/5, голосовать можно 1 раз )

    Другие торренты по теме:

  • Весенние обряды / Весенние ритуалы / Rites of Spring (2011) DVDRip от Хихидок
  • Весенние ритуалы / Rites of Spring (2011) WEB-DL от KinoFan | L2
  • Весенние надежды / Hope Springs (2012) BDRip 720p | Лицензия
  • Сборник - Весенние супер хиты русские (2013) MP3
  • Сборник - Самые горячие весенние треки (2013) MP3
  • Винни Пух: Весенние денёчки с малышом Ру / Winnie the Pooh: Springtime with Roo (2004) DVDRip-AVC от leonardo 59 Scarabey
  • Винни Пух: Весенние денёчки с малышом Ру / Winnie the Pooh: Springtime with Roo (2004) BDRip 720p | D скачать через торрент бесплатно
  • Винни Пух: Весенние денёчки с малышом Ру / Winnie the Pooh: Springtime with Roo (2004) BDRip-AVC | D скачать через торрент бесплатно


    • Комментарии (0):

      Информация

      Информация

        Посетители, находящиеся в группе Гости, не могут оставлять комментарии в данной новости.

        ↓ Меню



        ↓ Опрос

        А Вы добавили сайт в закладки?
        Да
        Не


        Top 10 за месяц (Фильмы)