.
Авторизация | Регистрация
» » Авиатор / The Aviator (1985) BDRemux 1080p | Р2, А скачать торрент бесплатно




    Авиатор / The Aviator (1985) BDRemux 1080p | Р2, А скачать торрент бесплатно

    Опубликовал: Админ | Дата: 1-07-2016, 14:23 | Просмотров: 101



    Авиатор / The Aviator
    Снималось в: США
    Создали в: Mace Neufeld Productions, United Artists
    Создали в: 1985
    Категория жанра: драма, приключения
    Время просмотра: 01: 36: 51
    Главный режиссер: Джордж Миллер
    Авторы сценария: Марк Норман, Эрнест К. Гэнн

    Актеры
    Кристофер Рив, Розанна Аркетт, Джек Уорден, Сэм Уонамейкер, Скотт Уилсон, Тайн Дейли, Марша Стрэссмен, Уилл Хэр, Роберт Пирс
    Описание: В 1920-х годах пилот почтовой службы и дочь богача совершают аварийную посадку на горе полной голодных волков…

    Перевод текста: Профессиональный (двухголосый) | НТВ++ Авторский (одноголосый) | Антон Алексеев
    Субтитры: английские
    Качество фильма: BDRemux 1080p
    Тип видео: МКV
    Информация о видео кодек: AVC
    Информация о звуке кодек: АС3 | DTS
    Информация о видео: 1920x1080 (16: 9), 23.976 fps, MPEG-4 AVC ~26.0 Мbps avg
    Информация о звуке №1: 48.0 kHz, AC3 Dolby Digital, 2/0 (L, R) ch, ~192.00 kbps | DVO
    Информация о звуке №2: 48.0 kHz, AC3 Dolby Digital, 2/0 (L, R) ch, ~192.00 kbps | AVO
    Информация о звуке №3: 48.0 kHz, Digital Theater Systems Master Audio, 2/0 (L, R) ch, ~1706 kbps | ENG
    Тип видео субтитров: UTF-8 Plain Text
    Дата премьеры (мир): 1 марта 1985

    Media Info

    Общее
    Уникальный идентификатор : 175559045040535230468028753639550185067 (0x841371330BEE81D9A99DEE8F64F36E6B)
    Полное имя : The Aviator.1985.BDRemux.1080p.mkv
    Формат : Matroska
    Версия формата : Version 4/Version 2
    Размер файла : 19, 0 Гбайт
    Продолжительность : 1 ч. 36 м.
    Режим общего битрейта : Переменный
    Общий поток : 28, 1 Мбит/сек
    Дата кодирования : UTC 2016-06-29 21: 11: 32
    Программа кодирования : mkvmerge v9.2.0 (;Photograph;) 64bit
    Библиотека кодирования : libebml v1.3.3 + libmatroska v1.4.4
    Видео
    Идентификатор : 1
    Формат : AVC
    Формат/Информация : Advanced Video Codec
    Параметр CABAC формата : Да
    Параметр ReFrames формата : 4 кадра
    Идентификатор кодека : V_MPEG4/ISO/AVC
    Продолжительность : 1 ч. 36 м.
    Вид битрейта : Переменный
    Битрейт : 26, 0 Мбит/сек
    Максимальный битрейт : 35, 0 Мбит/сек
    Ширина : 1920 пикселей
    Высота : 1080 пикселей
    Соотношение сторон : 16: 9
    Режим частоты кадров : Постоянный
    Частота кадров : 23, 976 (24000/1001) кадра/сек
    Стандарт вещания : NTSC
    Цветовое пространство : YUV
    Субдискретизация насыщенности : 4: 2: 0
    Битовая глубина : 8 бит
    Тип развёртки : Прогрессивная
    Бит/(Пиксели*Кадры) : 0.523
    Размер потока : 17, 6 Гбайт (93%)
    Язык : English
    Default : Да
    Forced : Нет
    Цветовой диапазон : Limited
    Основные цвета : BT.709
    Характеристики трансфера : BT.709
    Коэффициенты матрицы : BT.709
    Аудио #1
    Идентификатор : 2
    Формат : AC-3
    Формат/Информация : Audio Coding 3
    Расширение режима : CM (complete main)
    Параметр Endianness формата : Big
    Идентификатор кодека : A_AC3
    Продолжительность : 1 ч. 36 м.
    Вид битрейта : Постоянный
    Битрейт : 192 Кбит/сек
    Каналы : 2 канала
    Расположение каналов : Front: L R
    Частота : 48, 0 КГц
    Частота кадров : 31, 250 кадров/сек (1536 spf)
    Метод сжатия : С потерями
    Размер потока : 133 Мбайт (1%)
    Заголовок : DVO/НТВ+
    Язык : Russian
    Default : Да
    Forced : Нет
    Аудио #2
    Идентификатор : 3
    Формат : AC-3
    Формат/Информация : Audio Coding 3
    Расширение режима : CM (complete main)
    Параметр Endianness формата : Big
    Идентификатор кодека : A_AC3
    Продолжительность : 1 ч. 36 м.
    Вид битрейта : Постоянный
    Битрейт : 192 Кбит/сек
    Каналы : 2 канала
    Расположение каналов : Front: L R
    Частота : 48, 0 КГц
    Частота кадров : 31, 250 кадров/сек (1536 spf)
    Метод сжатия : С потерями
    Размер потока : 133 Мбайт (1%)
    Заголовок : AVO/Антон Алексеев
    Язык : Russian
    Default : Нет
    Forced : Нет
    Аудио #3
    Идентификатор : 4
    Формат : DTS
    Формат/Информация : Digital Theater Systems
    Профиль формата : MA/Core
    Режим : 16
    Параметр Endianness формата : Big
    Идентификатор кодека : A_DTS
    Продолжительность : 1 ч. 36 м.
    Вид битрейта : Переменный/Постоянный
    Битрейт : 1706 Кбит/сек/1509 Кбит/сек
    Каналы : 2 канала
    Расположение каналов : Front: L R
    Частота : 48, 0 КГц
    Частота кадров : 93, 750 кадра/сек (512 spf)
    Битовая глубина : 16 бит
    Метод сжатия : Без потерь/Lossy
    Размер потока : 1, 15 Гбайт (6%)
    Заголовок : Original
    Язык : English
    Default : Нет
    Forced : Нет
    Текст
    Идентификатор : 5
    Формат : UTF-8
    Идентификатор кодека : S_TEXT/UTF8
    Идентификатор кодека/Информация : UTF-8 Plain Text
    Продолжительность : 1 ч. 33 м.
    Битрейт : 43 бит/сек
    Count of elements : 715
    Размер потока : 29, 8 Кбайт (0%)
    Заголовок : Original
    Язык : English
    Default : Нет
    Forced : Нет
    Меню
    00: 00: 00.000 : en: 00: 00: 00.000
    00: 05: 13.813 : en: 00: 05: 13.813
    00: 14: 37.126 : en: 00: 14: 37.126
    00: 24: 45.109 : en: 00: 24: 45.109
    00: 31: 35.977 : en: 00: 31: 35.977
    00: 41: 53.261 : en: 00: 41: 53.261
    00: 49: 59.163 : en: 00: 49: 59.163
    00: 58: 23.333 : en: 00: 58: 23.333
    01: 07: 42.809 : en: 01: 07: 42.809
    01: 15: 25.771 : en: 01: 15: 25.771
    01: 22: 58.599 : en: 01: 22: 58.599
    01: 31: 02.040 : en: 01: 31: 02.040

    Скриншоты

    Залил: Zha-4k-e

    Онлайн видео Авиатор


    Размер скачиваемого торрента: 18.99 GB (20395519940 Bytes)

    Авиатор/The Aviator (1985) BDRemux 1080p | Р2, А
    загрузка...
    Рейтинг →
     (голосов: 1, оценка 4/5, голосовать можно 1 раз )

    Другие торренты по теме:

  • Авиатор / The Aviator (2004) HDRip от Scarabey | D скачать через торрент бесплатно
  • Авиатор / The Aviator (2004) BDRip от HQ-ViDEO скачать торрент бесплатно


    • Комментарии (0):

      Информация

      Информация

        Посетители, находящиеся в группе Гости, не могут оставлять комментарии в данной новости.

        ↓ Меню



        ↓ Опрос

        А Вы добавили сайт в закладки?
        Да
        Не


        Top 10 за неделю (Фильмы)