.
Авторизация | Регистрация
» » Дэдпул / Deadpool (2016) HDRip | Кубик в Кубе скачать торрент бесплатно




    Дэдпул / Deadpool (2016) HDRip | Кубик в Кубе скачать торрент бесплатно

    Опубликовал: Админ | Дата: 1-07-2016, 14:24 | Просмотров: 346



    Создали в: США, Marvel Enterprises, TSG Entertainment, Twentieth Century Fox Film Corporation
    Категория жанра: Фантастика, Боевик
    Главный режиссер: Тим Миллер
    Продюсер: Саймон Кинберг, Райан Рейнольдс, Лорен Шулер Доннер
    Актеры: Райан Рейнольдс, Морена Баккарин, Джина Карано, ТиДжей Миллер, Эд Скрейн, Рэйчел Шин, Брианна Хилдебранд, Андре Трикоте, Тэйлор Хиксон, Джед Риис

    Описание фильма

    Уэйд Уилсон — наемник. Будучи побочным продуктом программы вооруженных сил под названием Оружие Х, Уилсон приобрел невероятную силу, проворство и исцеляющий фактор. Но страшной ценой: его клеточная структура постоянно меняется, а его здравомыслие сомнительно. Все чего Уилсон хочет — это держаться на плаву в социальной выгребной яме. Но течение в ней слишком быстрое.

    Время просмотра: 01: 48: 41
    Качество фильма видео: HDRip
    Перевод текста: Профессиональный (многоголосый, закадровый)Кубик в Кубе (нецензурная лексика)
    Субтитры: Отсутствуют
    Информация о видео: MPEG4, XviD, 720x304 (2.35: 1), 23.976 fps, 1 730 Kbps (0.330 bit/pixel)
    Информация о звуке: AC-3, 48.0 KHz, 2 ch, 192 Kbps
    Mediainfo:
    Формат : AVI
    Формат/Информация : Audio Video Interleave
    Размер файла : 1, 46 Гбайт
    Продолжительность : 1 ч. 48 м.
    Общий поток : 1931 Кбит/сек
    Программа кодирования : VirtualDubMod 1.5.10.3 | www.virtualdub-fr.org || (build 2550/release)
    Библиотека кодирования : VirtualDubMod build 2550/release
    Видео
    Идентификатор : 0
    Формат : MPEG-4 Visual
    Профиль формата : Advanced Simple@L5
    Параметр BVOP формата : 1
    Параметр QPel формата : Нет
    Параметр GMC формата : Без точки перехода
    Параметр матрицы формата : Выборочная
    Идентификатор кодека : XVID
    Идентификатор кодека/Подсказка : XviD
    Продолжительность : 1 ч. 48 м.
    Битрейт : 1730 Кбит/сек
    Ширина : 720 пикселей
    Высота : 304 пикселя
    Соотношение сторон : 2, 35: 1
    Частота кадров : 23, 976 кадра/сек
    Цветовое пространство : YUV
    Субдискретизация насыщенности : 4: 2: 0
    Битовая глубина : 8 бит
    Тип развёртки : Прогрессивная
    Метод сжатия : С потерями
    Бит/(Пиксели*Кадры) : 0.330
    Размер потока : 1, 31 Гбайт (90%)
    Библиотека кодирования : XviD 73
    Аудио
    Идентификатор : 1
    Формат : AC-3
    Формат/Информация : Audio Coding 3
    Расширение режима : CM (complete main)
    Параметр Endianness формата : Big
    Идентификатор кодека : 2000
    Продолжительность : 1 ч. 48 м.
    Вид битрейта : Постоянный
    Битрейт : 192 Кбит/сек
    Каналы : 2 канала
    Расположение каналов : Front: L R
    Частота : 48, 0 КГц
    Битовая глубина : 16 бит
    Метод сжатия : С потерями
    Размер потока : 148 Мбайт (10%)
    Выравнивание : Разделение по промежуткам
    Продолжительность промежутка : 42 мс. (1, 00 видеокадр)
    Время предзагрузки промежутка : 500 мс.

    Скриншоты:


    Онлайн видео Дэдпул


    Размер скачиваемого торрента: 1.46 GB (1565724672 Bytes)

    Дэдпул/Deadpool (2016) HDRip | Кубик в Кубе
    загрузка...
    Рейтинг →
     (голосов: 1, оценка 3/5, голосовать можно 1 раз )

    Другие торренты по теме:



      Комментарии (0):

      Информация

      Информация

        Посетители, находящиеся в группе Гости, не могут оставлять комментарии в данной новости.

        ↓ Меню



        ↓ Опрос

        А Вы добавили сайт в закладки?
        Да
        Не


        Top 10 за неделю (Фильмы)