.
Авторизация | Регистрация
Хочешь лучшие торренты? Добавь свой email!
Добавить
» » Ночью Эвелин вышла из могилы / La notte che Evelyn usc dalla tomba (1971) BDRip от Koenig | A торрент скачать бесплатно


    Ночью Эвелин вышла из могилы / La notte che Evelyn usc dalla tomba (1971) BDRip от Koenig | A торрент скачать бесплатно

    Опубликовал: Админ | Дата: 2-07-2016, 05:00 | Просмотров: 71



    Детально о кино
    Русское название: Ночью Эвелин вышла из могилы
    Русское название в мировом прокате: La notte che Evelyn usc? dalla tomba
    Создали в: 1971
    Категория жанра: Ужасы, детектив
    Главный режиссер: Эмилио Миралья

    Актеры
    Энтони Штеффен, Марина Малфатти, Эрика Бланк, Джакомо Росси-Стюарт, Энцо Тарашо, Умберто Рахо, Джоан С. Дэвис, Этторе Бевилакуа, Мария Тереза Тофано

    Сюжет фильма

    Жена лорда Каннингема умерла, поэтому он приводит в свой замок таких же, как она, рыжеволосых красоток и убивает их. Чтобы избавиться от преступного пристрастия, он снова женится. Новая супруга уверяет, что могила ее предшественницы в фамильном склепе пуста…

    Снималось в: Италия
    Киностудия: Phoenix Cinematografica
    Время просмотра: 01: 42: 48
    Перевод текста: Авторский (Белов)
    Файл
    Качество фильма: BDRip
    Информация о видео: XviD, 1626 Кбит/с, 720x304, 23.976 кадр/с
    Информация о звуке #1: АС3, 2 ch, 192 Кбит/с | Русский
    Информация о звуке #2: АС3, 1 ch, 192 Кбит/с | Итальянский
    MediaInfo
    Общее
    Полное имя : Evelyn.1971.BDRip.avi
    Формат : AVI
    Формат/Информация : Audio Video Interleave
    Размер файла : 1, 45 Гбайт
    Продолжительность : 1 ч. 42 м.
    Общий поток : 2025 Кбит/сек
    Программа кодирования : VirtualDubMod 1.5.10.2 (build 2540/release)
    Библиотека кодирования : VirtualDubMod build 2540/release
    Видео
    Идентификатор : 0
    Формат : MPEG-4 Visual
    Профиль формата : Advanced Simple@L5
    Параметр BVOP формата : 1
    Параметр QPel формата : Да
    Параметр GMC формата : Без точки перехода
    Параметр матрицы формата : Default (H.263)
    Идентификатор кодека : XVID
    Идентификатор кодека/Подсказка : XviD
    Продолжительность : 1 ч. 42 м.
    Битрейт : 1626 Кбит/сек
    Ширина : 720 пикселей
    Высота : 304 пикселя
    Соотношение сторон : 2, 35: 1
    Частота кадров : 23, 976 кадра/сек
    Цветовое пространство : YUV
    Субдискретизация насыщенности : 4: 2: 0
    Битовая глубина : 8 бит
    Тип развёртки : Прогрессивная
    Метод сжатия : С потерями
    Бит/(Пиксели*Кадры) : 0.310
    Размер потока : 1, 17 Гбайт (80%)
    Библиотека кодирования : XviD 1.2.0.dev47 (UTC 2006-11-01)
    Аудио #1
    Идентификатор : 1
    Формат : AC-3
    Формат/Информация : Audio Coding 3
    Расширение режима : CM (complete main)
    Параметр Endianness формата : Big
    Идентификатор кодека : 2000
    Продолжительность : 1 ч. 42 м.
    Вид битрейта : Постоянный
    Битрейт : 192 Кбит/сек
    Каналы : 2 канала
    Расположение каналов : Front: L R
    Частота : 48, 0 КГц
    Метод сжатия : С потерями
    Размер потока : 141 Мбайт (9%)
    Выравнивание : Разделение по промежуткам
    Продолжительность промежутка : 42 мс. (1, 00 видеокадр)
    Время предзагрузки промежутка : 500 мс.
    Аудио #2
    Идентификатор : 2
    Формат : AC-3
    Формат/Информация : Audio Coding 3
    Расширение режима : CM (complete main)
    Параметр Endianness формата : Big
    Идентификатор кодека : 2000
    Продолжительность : 1 ч. 42 м.
    Вид битрейта : Постоянный
    Битрейт : 192 Кбит/сек
    Каналы : 1 канал
    Расположение каналов : Front: C
    Частота : 48, 0 КГц
    Метод сжатия : С потерями
    Размер потока : 141 Мбайт (9%)
    Выравнивание : Разделение по промежуткам
    Продолжительность промежутка : 42 мс. (1, 00 видеокадр)
    Время предзагрузки промежутка : 500 мс.
    Скриншоты

    Залил: Koenig602

    Онлайн видео Ночью Эвелин вышла из могилы


    Размер скачиваемого торрента: 1.45 GB (1561280512 Bytes)

    Ночью Эвелин вышла из могилы/La notte che Evelyn usc dalla tomba (1971) BDRip от Koenig | A
    загрузка...
    Рейтинг →
     (голосов: 1, оценка 4/5, голосовать можно 1 раз )

    Другие торренты по теме:

  • Ночью Эвелин вышла из могилы / La notte che Evelyn usc dalla tomba (1971) BDRemux 1080p | A


    • Комментарии (0):

      Информация

      Информация

        Посетители, находящиеся в группе Гости, не могут оставлять комментарии в данной новости.

        ↓ Меню



        ↓ Опрос

        А Вы добавили сайт в закладки?
        Да
        Не


        Top 10 за месяц (Фильмы)