.
Авторизация | Регистрация
Хочешь лучшие торренты? Добавь свой email!
Добавить
» » Острые козырьки / Заточенные кепки / Peaky Blinders (2013-2016) HDRip-AVC, HDTVRip-AVC от R.G.Resident | AlexFilm торрент скачать бесплатно




    Острые козырьки / Заточенные кепки / Peaky Blinders (2013-2016) HDRip-AVC, HDTVRip-AVC от R.G.Resident | AlexFilm торрент скачать бесплатно

    Опубликовал: Админ | Дата: 2-07-2016, 17:17 | Просмотров: 61



    Детально о кино
    Русское название: Острые козырьки/Заточенные кепки
    Русское название в мировом прокате: Peaky Blinders
    Создали в: 2013-2016
    Снималось в: Великобритания
    Категория жанра: драма, криминал
    Перевод текста: Профессиональный (многоголосый) - AlexFilm
    Время просмотра: ~00: 58: 00
    Главный режиссер: Колм МакКарти , Tim Mielants , Отто Баферст

    Актеры
    Киллиан Мёрфи(Thomas Shelby) , Сэм Нил(Inspector Chester Campbell) , Хелен МакКрори(Aunt Polly) , Аннабелль Уоллис(Grace Burgess) , Иддо Голдберг(Freddie Thorne) , Пол Андерсон(Arthur Shelby) , Софи Рандл(Ada Shelby) , Джо Коул(John Shelby) , Чарли Крид-Майлз(Billy Kimber) , Том Харди(Alfie Solomons) , Сэмюэл Эдвард-Кук(Danny Whizz-Bang) , Томми Флэнаган(Arthur Senior)


    Описание фильма

    Британский сериал о криминальном мире Бирмингема 20-х годов прошлого века, в котором многолюдная семья Шелби стала одной из самых жестоких и влиятельных гангстерских банд послевоенного времени. Фирменным знаком группировки, промышлявшей грабежами и азартными играми, стали зашитые в козырьки лезвия.
    Рейтинг:

    Качество фильма: HDRip-AVC, HDTVRip-AVC
    Тип видео: MKV
    Информация о видео: AVC, 1024x554 (16: 9), 1265 kbps, 25 fps, 0, 089 bpp
    Информация о звуке №1: русский AC3/2.0/48 kHz/448 kbps/16 bit
    Семпл

    Релиз подготовил: White Smoke

    ОтчетМедиаИнфо

    Unique ID : 182827153316240364257889273162303822987 (0x898B3A9A9FDE0271B9369E91EA4C5C8B)
    Название : C: Заточенные кепки Острые козырьки.s1-31 SPeaky.Blinders.S01E01.HDRip-AVC.by.White Smoke.R.G.Resident.AlexFilm.mkv
    Формат : Matroska
    Формат version : Version 4/Version 2
    Размер файла : 699 MiB
    Длительность : 56mn 59s
    Общий Битрейт : 1 715 Kbps
    Movie name : Peaky.Blinders.S01E01.HDRip-AVC.by.White Smoke.R.G.Resident.AlexFilm.mkv
    Encoded date : UTC 2016-06-09 15: 34: 45
    Создано приложением : mkvmerge v6.8.0 (;Theme for Great Cities;) 64bit built on Mar 2 2014 21: 34: 26
    Writing library : libebml v1.3.0 + libmatroska v1.4.1
    Video
    ID : 1
    Формат : AVC
    Формат/Info : Advanced Video Кодек
    Формат profile : High@L4.1
    Формат настройки, CABAC : Yes
    Формат настройки, ReFrames : 12 frames
    Кодек ID : V_MPEG4/ISO/AVC
    Длительность : 56mn 59s
    Битрейт : 1 265 Kbps
    Width : 1 024 пикселей
    Высота : 554 пикселей
    Соотношение кадра : 16: 9
    Частота кадров : 25.000 fps
    Цветопередача : YUV
    Chroma subsampling : 4: 2: 0
    Разрядность : 8 bits
    Тип сканирования : Progressive
    Bits/(Pixel*Frame) : 0.089
    Размер потока : 502 MiB (72%)
    Writing library : x264 core 148 r2638 7599210
    Encoding настройки : cabac=1/ref=12/deblock=1: -3: -3/analyse=0x3: 0x113/me=umh/subme=9/psy=1/psy_rd=1.00: 0.00/mixed_ref=1/me_range=32/chroma_me=1/trellis=2/8x8dct=1/cqm=0/deadzone=21, 11/fast_pskip=1/chroma_qp_offset=-2/threads=6/lookahead_threads=1/sliced_threads=0/nr=0/decimate=0/interlaced=0/bluray_compat=0/constrained_intra=0/bframes=12/b_pyramid=2/b_adapt=2/b_bias=10/direct=1/weightb=0/open_gop=0/weightp=2/keyint=240/keyint_min=25/scenecut=40/intra_refresh=0/rc_lookahead=40/rc=2pass/mbtree=1/bitrate=1265/ratetol=1.0/qcomp=0.85/qpmin=0/qpmax=69/qpstep=4/cplxblur=20.0/qblur=0.5/ip_ratio=1.40/aq=1: 1.00
    Язык : English
    Default : Yes
    Forced : No
    Audio
    ID : 2
    Формат : AC-3
    Формат/Info : Audio Coding 3
    Расширение режима : CM (complete main)
    Кодек ID : A_AC3
    Длительность : 56mn 59s
    Битрейт mode : Constant
    Битрейт : 448 Kbps
    Channel(s) : 2 канала
    Channel positions : Front: L R
    Частота : 48.0 KHz
    Разрядность : 16 bits
    Режим сжатия : Lossy
    Размер потока : 183 MiB (26%)
    Default : Yes
    Forced : No

    Скриншоты

    Залил: R.G. Resident

    Онлайн видео Острые козырьки


    Размер скачиваемого торрента: 11.16 GB (11984583294 Bytes)

    Острые козырьки/Заточенные кепки/Peaky Blinders (2013-2016) HDRip-AVC, HDTVRip-AVC от R.G.Resident | AlexFilm
    загрузка...
    Рейтинг →
     (голосов: 1, оценка 3/5, голосовать можно 1 раз )

    Другие торренты по теме:

  • Заточенные кепки / Острые козырьки / Peaky Blinders (2013) WEB-DLRip | AlexFilm скачать через торрент бесплатно
  • Заточенные кепки / Острые козырьки / Peaky Blinders (2013) HDTVRip | ColdFilm
  • Острые козырьки / Заточенные кепки / Peaky Blinders (2013) HDTVRip | Ozz
  • Острые козырьки / Peaky Blinders (2013) WEB-DLRip 720p | LostFilm
  • Заточенные кепки / Острые козырьки / Peaky Blinders (2013) WEB-DLRip | LostFilm
  • Острые козырьки / Peaky Blinders (2013) WEB-DLRip от Scarabey | LostFilm скачать через торрент бесплатно
  • Заточенные кепки / Острые козырьки / Peaky Blinders (2013) BDRip 720p | AlexFilm скачать через торрент бесплатно
  • Заточенные кепки / Острые козырьки / Peaky Blinders (2013) WEB-DLRip 720p | LostFilm


    • Комментарии (0):

      Информация

      Информация

        Посетители, находящиеся в группе Гости, не могут оставлять комментарии в данной новости.

        ↓ Меню



        ↓ Опрос

        А Вы добавили сайт в закладки?
        Да
        Не


        Top 10 за месяц (Фильмы)