.
Авторизация | Регистрация
Хочешь лучшие торренты? Добавь свой email!
Добавить
» » Дивергент, глава 3: За стеной / Allegiant (2016) BDRemux 1080p от ExKinoRay | iTunes торрент скачать бесплатно




    Дивергент, глава 3: За стеной / Allegiant (2016) BDRemux 1080p от ExKinoRay | iTunes торрент скачать бесплатно

    Опубликовал: Админ | Дата: 3-07-2016, 05:00 | Просмотров: 52



    Детально о кино
    Русское название: Дивергент, глава 3: За стеной
    Русское название в мировом прокате: Allegiant
    Создали в: 2016
    Категория жанра: Фантастика, боевик, приключения
    Главный режиссер: Роберт Швентке

    Актеры
    Шэйлин Вудли, Тео Джеймс, Энсел Элгорт, Зои Кравиц, Майлз Теллер, Джефф Дэниелс, Наоми Уоттс, Мэгги Кью, Билл Скарсгард, Кейнан Лонсдейл, Надиа Хилкер, Октавия Спенсер, Дэниэл Дэ Ким, Джонни Уэстон, Энди Бин, Рэй Стивенсон, Мекхай Файфер, Джозеф Дэвид-Джонс, Эшли Джадд, Джош Давендек

    Сюжет фильма

    Джанин мертва и власть над Чикаго от Эрудитов переходит к афракционерам во главе с Эвелин. Они начинают разрушать фракционную систему и не выпускают никого за пределы города. Это вызывает волну недовольства и контрреволюционные настроения. Часть людей объединяется вокруг Джоанны Рейес, называя себя эллигентами. Их группа готова бороться за возвращение фракций. Вооруженное противостояние неизбежно. Между тем, Трис и Фор отправляются в неведомый мир за городской стеной, чтобы найти отцов-основателей нового мирового порядка и узнать шокирующую правду.

    Снималось в: США
    Киностудия: Lionsgate, Red Wagon Productions, Summit Entertainment
    Время просмотра: 02: 00: 33
    Перевод текста: Дублированный | iTunes
    Файл
    Кодек для видео: x264
    Качество фильма: BDRemux 1080p
    Информация о видео: 1920x1080, 34.2 Mbit/s, 23.976 fps
    Информация о звуке:
    Информация о звуке #01: 48 kHz, AC3, 5.1, 384 Kbps | Дублированный, iTunes |
    Информация о звуке #02: 48 kHz, TrueHD, 7.1, 4793 kbps | Оригинал |
    Субтитры: Английские
    Релиз подготовил: Автор релиза:

    MI
    General
    Unique ID : 182455800093017743499315688932342953009 (0x8943B579FCBB2E4E9A0A98F7B31EF431)
    Complete name : F: VideoAllegiant.2016.BDREMUX.1080p.ExKinoRay.mkv
    Format : Matroska
    Format version : Version 4/Version 2
    File size : 33.2 GiB
    Duration : 2h 0mn
    Overall bit rate mode : Variable
    Overall bit rate : 39.4 Mbps
    Movie name : Allegiant.2016.BDREMUX.1080p.ExKinoRay
    Encoded date : UTC 2016-07-02 20: 16: 52
    Writing application : mkvmerge v8.3.0 (;Over the Horizon;) 64bit
    Writing library : libebml v1.3.1 + libmatroska v1.4.2
    Video
    ID : 1
    Format : AVC
    Format/Info : Advanced Video Codec
    Format profile : High@L4.1
    Format settings, CABAC : Yes
    Format settings, ReFrames : 4 frames
    Codec ID : V_MPEG4/ISO/AVC
    Duration : 2h 0mn
    Bit rate mode : Variable
    Bit rate : 34.2 Mbps
    Maximum bit rate : 36.5 Mbps
    Width : 1 920 pixels
    Height : 1 080 pixels
    Display aspect ratio : 16: 9
    Frame rate mode : Constant
    Frame rate : 23.976 (23976/1000) fps
    Original frame rate : 23.976 (24000/1001) fps
    Color space : YUV
    Chroma subsampling : 4: 2: 0
    Bit depth : 8 bits
    Scan type : Progressive
    Bits/(Pixel*Frame) : 0.687
    Stream size : 28.8 GiB (87%)
    Language : English
    Default : Yes
    Forced : No
    Audio #1
    ID : 2
    Format : AC-3
    Format/Info : Audio Coding 3
    Mode extension : CM (complete main)
    Format settings, Endianness : Big
    Codec ID : A_AC3
    Duration : 2h 0mn
    Bit rate mode : Constant
    Bit rate : 384 Kbps
    Channel(s) : 6 channels
    Channel positions : Front: L C R, Side: L R, LFE
    Sampling rate : 48.0 KHz
    Frame rate : 31.250 fps (1536 spf)
    Compression mode : Lossy
    Stream size : 331 MiB (1%)
    Title : DUB iTunes
    Language : Russian
    Default : Yes
    Forced : No
    Audio #2
    ID : 3
    Format : Atmos/TrueHD
    Codec ID : A_TRUEHD
    Duration : 2h 0mn
    Bit rate mode : Variable
    Bit rate : 4 793 Kbps
    Maximum bit rate : 6 219 Kbps
    Channel(s) : Object Based/8 channels
    Channel positions : Object Based/Front: L C R, Side: L R, Back: L R, LFE
    Sampling rate : /48.0 KHz
    Frame rate : 1 200.000 fps (40 spf)
    Compression mode : Lossless
    Delay relative to video : 1ms
    Stream size : 4.04 GiB (12%)
    Title : Original
    Language : English
    Default : No
    Forced : No
    Text #1
    ID : 4
    Format : UTF-8
    Codec ID : S_TEXT/UTF8
    Codec ID/Info : UTF-8 Plain Text
    Duration : 1h 48mn
    Bit rate : 45 bps
    Count of elements : 1173
    Stream size : 36.3 KiB (0%)
    Title : Full
    Language : English
    Default : No
    Forced : No
    Text #2
    ID : 5
    Format : UTF-8
    Codec ID : S_TEXT/UTF8
    Codec ID/Info : UTF-8 Plain Text
    Duration : 1h 49mn
    Bit rate : 50 bps
    Count of elements : 1312
    Stream size : 40.3 KiB (0%)
    Title : SDH
    Language : English
    Default : No
    Forced : No
    Menu
    00: 00: 00.000 : en: Chapter 1
    00: 09: 46.336 : en: Chapter 2
    00: 16: 54.305 : en: Chapter 3
    00: 25: 52.092 : en: Chapter 4
    00: 32: 45.213 : en: Chapter 5
    00: 37: 26.202 : en: Chapter 6
    00: 45: 49.538 : en: Chapter 7
    00: 53: 31.458 : en: Chapter 8
    00: 58: 18.245 : en: Chapter 9
    01: 07: 21.162 : en: Chapter 10
    01: 13: 46.714 : en: Chapter 11
    01: 19: 51.036 : en: Chapter 12
    01: 26: 40.237 : en: Chapter 13
    01: 33: 12.128 : en: Chapter 14
    01: 40: 24.060 : en: Chapter 15
    01: 46: 18.872 : en: Chapter 16
    Скриншоты


    Онлайн видео Дивергент, глава 3: За стеной


    Размер скачиваемого торрента: 33.18 GB (35627848914 Bytes)

    Дивергент, глава 3: За стеной/Allegiant (2016) BDRemux 1080p от ExKinoRay | iTunes
    загрузка...
    Рейтинг →
     (голосов: 1, оценка 5/5, голосовать можно 1 раз )

    Другие торренты по теме:

  • Дивергент, глава 2: Инсургент / Insurgent (2015) CAMRip
  • Дивергент, глава 2: Инсургент / Insurgent (2015) WEBRip | Звук с TS
  • Дивергент, глава 2: Инсургент / Insurgent (2015) HDTVRip–AVC | Чистый звук
  • Дивергент, глава 2: Инсургент / Insurgent (2015) HDTVRip | Чистый звук
  • Дивергент, глава 2: Инсургент / Insurgent (2015) HDRip от Scarabey | Чистый звук
  • Дивергент, глава 2: Инсургент / Insurgent (2015) BDRip 720p | iTunes
  • Дивергент, глава 2: Инсургент / Insurgent (2015) Blu-ray 1080p от HDCLUB | RUS Transfer | D | лицензия
  • Дивергент, глава 2: Инсургент / Insurgent (2015) BDRip 720p | Лицензия


    • Комментарии (0):

      Информация

      Информация

        Посетители, находящиеся в группе Гости, не могут оставлять комментарии в данной новости.

        ↓ Меню



        ↓ Опрос

        А Вы добавили сайт в закладки?
        Да
        Не


        Top 10 за месяц (Фильмы)