.
Авторизация | Регистрация
» » Бэтмен против Супермена: На заре справедливости / Batman v Superman: Dawn of Justice (2016) WEB-DL 1080p | ULTIMATE EDITION | D скачать торрент бесплатно




    Бэтмен против Супермена: На заре справедливости / Batman v Superman: Dawn of Justice (2016) WEB-DL 1080p | ULTIMATE EDITION | D скачать торрент бесплатно

    Опубликовал: Админ | Дата: 3-07-2016, 05:00 | Просмотров: 62



    Детально о кино
    Русское название: Бэтмен против Супермена: На заре справедливости (ULTIMATE EDITION)
    Русское название в мировом прокате: Batman v Superman: Dawn of Justice
    Создали в: 2016
    Категория жанра: фантастика, боевик, приключения
    Главный режиссер: Зак Снайдер

    Актеры
    Генри Кавилл, Бен Аффлек, Галь Гадот, Эми Адамс, Джесси Айзенберг, Джереми Айронс, Дайан Лэйн, Лоренс Фишбёрн, Холли Хантер, Скут МакНэри

    Сюжет фильма

    Опасаясь, что действия богоподобного супергероя так и останутся бесконтрольными, грозный и могущественный страж Готэм Сити бросает вызов самому почитаемому в наши дни спасителю Метрополиса, в то время как весь остальной мир решает, какой герой ему по-настоящему нужен. И пока Бэтмен и Супермен пребывают в состоянии войны друг с другом, возникает новая угроза, которая ставит человечество под самую большую опасность, с которой оно когда-либо сталкивалось.

    Снималось в: США
    Киностудия: Atlas Entertainment, Cruel Unusual Films, DC Comics, DC Entertainment, RatPac-Dune Entertainment, Warner Bros. Pictures
    Время просмотра: 03: 02: 31
    Перевод текста: Дублированный iTunes. Расширенные места без русского озвучивания переведены русскими субтитрами
    Файл
    Кодек для видео: H.264
    Качество фильма: WEB-DL 1080p
    Информация о видео: AVC, 1916x796 (2.40: 1), 23.976 fps ~ 4390 Kbps
    Информация о звуке:
    AC3, 48 KHz 6 ch ~ 384 Kb/s (русский)
    AC3, 48 KHz 6 ch ~ 384 Kb/s (английский)
    Субтитры: русские NotaBenoid, английские
    Доп. информация:

    Субтитры NotaBenoid, владелец: p_zombie.
    Переводчики: p_zombie, chasmoid, Crytek23, leon777killer, Dmitry4444, Efosa

    MI:

    Общее
    Уникальный идентификатор : 235023346692447142336898436733186859346 (0xB0CFD9A05169049790CC4ABFCDC3E152)
    Полное имя : E: ЗагрузкиBatman.v.Superman.Dawn.of.Justice.2016.D.Extended.Ultimate.Edition.WEB-DL.1080p.mkv
    Формат : Matroska
    Версия формата : Version 2
    Размер файла : 6, 71 Гбайт
    Продолжительность : 3 ч. 2 м.
    Общий поток : 5262 Кбит/сек
    Дата кодирования : UTC 2016-07-02 14: 02: 52
    Программа кодирования : mkvmerge v5.6.0 (;Kenya Kane;) built on May 27 2012 16: 44: 04
    Библиотека кодирования : libebml v1.2.3 + libmatroska v1.3.0
    Видео
    Идентификатор : 1
    Формат : AVC
    Формат/Информация : Advanced Video Codec
    Профиль формата : High@L4
    Параметр CABAC формата : Да
    Параметр ReFrames формата : 5 кадров
    Идентификатор кодека : V_MPEG4/ISO/AVC
    Продолжительность : 3 ч. 2 м.
    Битрейт : 4389 Кбит/сек
    Ширина : 1916 пикселей
    Высота : 796 пикселей
    Соотношение сторон : 2, 40: 1
    Режим частоты кадров : Постоянный
    Частота кадров : 23, 976 кадра/сек
    Цветовое пространство : YUV
    Субдискретизация насыщенности : 4: 2: 0
    Битовая глубина : 8 бит
    Тип развёртки : Прогрессивная
    Бит/(Пиксели*Кадры) : 0.120
    Размер потока : 5, 60 Гбайт (83%)
    Язык : English
    Default : Да
    Forced : Нет
    Цветовой диапазон : Limited
    Основные цвета : BT.709
    Характеристики трансфера : BT.709
    Коэффициенты матрицы : BT.709
    Statistics Tags Issue : mkvmerge v8.3.0 (;Over the Horizon;) 64bit 2016-07-02 08: 21: 59/mkvmerge v5.6.0 (;Kenya Kane;) built on May 27 2012 16: 44: 04 2016-07-02 14: 02: 52
    FromStats_BitRate : 4491946
    FromStats_Duration : 03: 02: 31.744000000
    FromStats_FrameCount : 262579
    FromStats_StreamSize : 6149331360
    Аудио #1
    Идентификатор : 2
    Формат : AC-3
    Формат/Информация : Audio Coding 3
    Расширение режима : CM (complete main)
    Параметр Endianness формата : Big
    Идентификатор кодека : A_AC3
    Продолжительность : 3 ч. 2 м.
    Вид битрейта : Постоянный
    Битрейт : 384 Кбит/сек
    Каналы : 6 каналов
    Расположение каналов : Front: L C R, Side: L R, LFE
    Частота : 48, 0 КГц
    Частота кадров : 31, 250 кадров/сек (1536 spf)
    Метод сжатия : С потерями
    Размер потока : 501 Мбайт (7%)
    Язык : Russian
    Default : Да
    Forced : Нет
    Statistics Tags Issue : mkvmerge v8.3.0 (;Over the Horizon;) 64bit 2016-07-02 08: 21: 59/mkvmerge v5.6.0 (;Kenya Kane;) built on May 27 2012 16: 44: 04 2016-07-02 14: 02: 52
    FromStats_BitRate : 384000
    FromStats_Duration : 03: 02: 31.712000000
    FromStats_FrameCount : 342241
    FromStats_StreamSize : 525682176
    Аудио #2
    Идентификатор : 3
    Формат : AC-3
    Формат/Информация : Audio Coding 3
    Расширение режима : CM (complete main)
    Параметр Endianness формата : Big
    Идентификатор кодека : A_AC3
    Продолжительность : 3 ч. 2 м.
    Вид битрейта : Постоянный
    Битрейт : 384 Кбит/сек
    Каналы : 6 каналов
    Расположение каналов : Front: L C R, Side: L R, LFE
    Частота : 48, 0 КГц
    Частота кадров : 31, 250 кадров/сек (1536 spf)
    Метод сжатия : С потерями
    Размер потока : 501 Мбайт (7%)
    Заголовок : Original
    Язык : English
    Default : Нет
    Forced : Нет
    Statistics Tags Issue : mkvmerge v8.3.0 (;Over the Horizon;) 64bit 2016-07-02 08: 21: 59/mkvmerge v5.6.0 (;Kenya Kane;) built on May 27 2012 16: 44: 04 2016-07-02 14: 02: 52
    FromStats_BitRate : 384000
    FromStats_Duration : 03: 02: 31.712000000
    FromStats_FrameCount : 342241
    FromStats_StreamSize : 525682176
    Текст #1
    Идентификатор : 4
    Формат : UTF-8
    Идентификатор кодека : S_TEXT/UTF8
    Идентификатор кодека/Информация : UTF-8 Plain Text
    Заголовок : NotaBenoid
    Язык : Russian
    Default : Да
    Forced : Нет
    Statistics Tags Issue : mkvmerge v8.3.0 (;Over the Horizon;) 64bit 2016-07-02 08: 21: 59/mkvmerge v5.6.0 (;Kenya Kane;) built on May 27 2012 16: 44: 04 2016-07-02 14: 02: 52
    FromStats_BitRate : 66
    FromStats_Duration : 02: 53: 29.625000000
    FromStats_FrameCount : 1588
    FromStats_StreamSize : 86810
    Текст #2
    Идентификатор : 5
    Формат : UTF-8
    Идентификатор кодека : S_TEXT/UTF8
    Идентификатор кодека/Информация : UTF-8 Plain Text
    Заголовок : Full
    Язык : English
    Default : Нет
    Forced : Нет
    Statistics Tags Issue : mkvmerge v8.3.0 (;Over the Horizon;) 64bit 2016-07-02 08: 21: 59/mkvmerge v5.6.0 (;Kenya Kane;) built on May 27 2012 16: 44: 04 2016-07-02 14: 02: 52
    FromStats_BitRate : 42
    FromStats_Duration : 02: 53: 23.625000000
    FromStats_FrameCount : 1584
    FromStats_StreamSize : 55195
    Меню
    00: 00: 00.000 : en: 1
    00: 10: 08.000 : en: 2
    00: 27: 00.000 : en: 3
    00: 37: 49.000 : en: 4
    00: 46: 54.000 : en: 5
    01: 02: 04.000 : en: 6
    01: 14: 10.000 : en: 7
    01: 28: 07.000 : en: 8
    01: 41: 46.000 : en: 9
    01: 53: 52.000 : en: 10
    02: 02: 58.000 : en: 11
    02: 15: 03.000 : en: 12
    02: 27: 54.000 : en: 13
    02: 36: 51.000 : en: 14
    02: 48: 17.000 : en: 15
    02: 54: 44.000 : en: 16

    Скриншоты

    СЭМПЛ

    Онлайн видео Бэтмен против Супермена: На заре справедливости


    Размер скачиваемого торрента: 6.71 GB (7203792355 Bytes)

    Бэтмен против Супермена: На заре справедливости/Batman v Superman: Dawn of Justice (2016) WEB-DL 1080p | ULTIMATE EDITION | D
    загрузка...
    Рейтинг →
     (голосов: 1, оценка 4/5, голосовать можно 1 раз )

    Другие торренты по теме:

  • Бэтмен против Дракулы / The Batman vs Dracula: The Animated Movie (2005) WEB-DLRip от Deadmauvlad | D | iTunes торрент скачать бесплатно
  • Бэтмен против Робина / Batman vs. Robin (2015) HDRip | L скачать торрент бесплатно
  • Бэтмен против Робина / Batman vs. Robin (2015) WEB-DL 1080p | L1 скачать торрент бесплатно
  • Бэтмен против Робина / Batman vs. Robin (2015) HDRip | L1 скачать торрент бесплатно
  • Бэтмен против Робина / Batman vs. Robin (2015) WEB-DLRip | Sub скачать торрент бесплатно
  • Бэтмен против Супермена: На заре справедливости / Batman v Superman: Dawn of Justice (2016) DCPrip | 2K, Hi10P | Тизер-трейлер скачать торрент бесплатно
  • Бэтмен против Робина / Batman vs. Robin (2015) BDRemux 1080p скачать торрент бесплатно
  • Бэтмен против Супермена: На заре справедливости / Batman v Superman: Dawn of Justice (2016) WEBRip 1080p | Трейлер#3 скачать торрент бесплатно


    • Комментарии (0):

      Информация

      Информация

        Посетители, находящиеся в группе Гости, не могут оставлять комментарии в данной новости.

        ↓ Меню



        ↓ Опрос

        А Вы добавили сайт в закладки?
        Да
        Не


        Top 10 за неделю (Фильмы)