.
Авторизация | Регистрация
Хочешь лучшие торренты? Добавь свой email!
Добавить
» » Срок жизни / Term Life (2016) HDRip от Paladin777| L торрент скачать бесплатно




    Срок жизни / Term Life (2016) HDRip от Paladin777| L торрент скачать бесплатно

    Опубликовал: Админ | Дата: 3-07-2016, 05:00 | Просмотров: 85



    Детально о кино
    Русское название: Срок жизни
    Русское название в мировом прокате: Term Life
    Создали в: 2016
    Категория жанра: Драма, криминал
    Главный режиссер: Питер Биллингсли

    Актеры
    Винс Вон, Хейли Стайнфелд, Джонатан Бэнкс, Джон Фавро, Тараджи П. Хенсон, Аннабет Гиш, Билл Пэкстон, Терренс Ховард, Мануэль Рульфо, Хорди Молья

    Сюжет фильма

    Фильм рассказывает о персонаже по имени Ник Бэрроу, который планирует кражи, а потом продаёт эти проекты тому, кто больше заплатит. Но наступает чёрный день - один из замыслов Ника с треском проваливается, и теперь его смерти жаждут все, начиная с главарей мафии и заканчивая оборотнями в погонах. Поняв, что от судьбы не убежишь, герой решает сделать напоследок что-то хорошее - он страхует жизнь на миллион долларов, чтобы после смерти обеспечить свою дочь. Не учитывает Ник только одного - страховка начнет действовать лишь через 21 день, в течение которых герою необходимо оставаться в живых. А это в его ситуации совсем не просто.

    Снималось в: США
    Киностудия: Palm-Star Entertainment, PenLife Media, Wild West Picture Show Productions
    Время просмотра: 01: 31: 50
    Перевод текста: Любительский многоголосый (закадровый) | Parovoz Production
    Файл
    Кодек для видео: XviD
    Качество фильма: HDRip/BDRip 720
    Информация о видео: XviD, 943 Кбит/сек, 688 x 288 (2.398), 23.976 fps
    Информация о звуке: AC-3, 192 Кбит/сек, 2 канала, 48, 0 КГц
    Субтитры: нет
    Семпл
    Скриншоты

    MediaInfo
    Общее
    Полное имя : C: UsersAzamatDesktopTerm.Life.2016.HDRip.by.Paladin777.avi
    Формат : AVI
    Формат/Информация : Audio Video Interleave
    Размер файла : 760 Мбайт
    Продолжительность : 1 ч. 32 м.
    Общий поток : 1146 Кбит/сек
    Название фильма : Term.Life.2016.BDRip.720p.ExKinoRay
    Программа кодирования : Lavf56.25.101
    Видео
    Идентификатор : 0
    Формат : MPEG-4 Visual
    Профиль формата : Advanced Simple@L5
    Параметр BVOP формата : Нет
    Параметр QPel формата : Нет
    Параметр GMC формата : Без точки перехода
    Параметр матрицы формата : Default (MPEG)
    Идентификатор кодека : XVID
    Идентификатор кодека/Подсказка : XviD
    Продолжительность : 1 ч. 32 м.
    Битрейт : 943 Кбит/сек
    Ширина : 688 пикселей
    Высота : 288 пикселей
    Соотношение сторон : 2, 40: 1
    Частота кадров : 23, 976 (24000/1001) кадра/сек
    Цветовое пространство : YUV
    Субдискретизация насыщенности : 4: 2: 0
    Битовая глубина : 8 бит
    Тип развёртки : Прогрессивная
    Метод сжатия : С потерями
    Бит/(Пиксели*Кадры) : 0.199
    Размер потока : 626 Мбайт (82%)
    Библиотека кодирования : XviD 67
    Аудио
    Идентификатор : 1
    Формат : AC-3
    Формат/Информация : Audio Coding 3
    Расширение режима : CM (complete main)
    Параметр Endianness формата : Big
    Идентификатор кодека : 2000
    Продолжительность : 1 ч. 32 м.
    Вид битрейта : Постоянный
    Битрейт : 192 Кбит/сек
    Каналы : 2 канала
    Расположение каналов : Front: L R
    Частота : 48, 0 КГц
    Частота кадров : 31, 250 кадров/сек (1536 spf)
    Битовая глубина : 16 бит
    Метод сжатия : С потерями
    Размер потока : 127 Мбайт (17%)
    Выравнивание : Соединение по промежуткам
    Продолжительность промежутка : 32 мс. (0, 77 видеокадр)
    Заголовок : MVO Parovoz Production

    Релиз подготовил: Paladin777
    Залил: Paladin777

    Онлайн видео Срок жизни


    Размер скачиваемого торрента: 760.02 MB (796937002 Bytes)

    Срок жизни/Term Life (2016) HDRip от Paladin777| L
    загрузка...
    Рейтинг →
     (голосов: 1, оценка 4/5, голосовать можно 1 раз )

    Другие торренты по теме:

  • Срок жизни / Term Life (2016)
  • Срок жизни / Term Life (2016) WEB-DL 720p | L1
  • Срок жизни / Term Life (2016) WEB-DLRip от Generalfilm | КПК
  • Срок жизни / Term Life (2016) BDRip 720p от ExKinoRay | L


    • Комментарии (0):

      Информация

      Информация

        Посетители, находящиеся в группе Гости, не могут оставлять комментарии в данной новости.

        ↓ Меню



        ↓ Опрос

        А Вы добавили сайт в закладки?
        Да
        Не


        Top 10 за месяц (Фильмы)